BitTorrentTracker PerecTracker.org
BitTorrentTracker PerecTracker.org
    
Регистрация  ·  Вход
 
 · 
Забыли пароль?

  • Багровый пик / Crimson Peak (Гильермо дель Торо / Guillermo del Toro ) [2015, Канада, ужасы, фэнтези, триллер, драма, мелодрама, детектив, BDRip, HD (720p)] DUB + Original + sub (rus, eng)

    Ответить на тему
     
    Автор Сообщение

    Flirldrerve

    Создавать темы 31-Янв-2016 15:32

           

    [Цитировать]

    Багровый пик / Crimson Peak
    «Beware»
    6.702 / 10 6.70 / 10
    -Год выпуска: 2015
    Страна: США, Канада
    Жанр: Ужасы, фэнтези, триллер, драма, мелодрама, детектив
    Продолжительность: 01:58:43
    Перевод: Дублированный (iTunes)
    Оригинальная аудиодорожка: Есть
    Cубтитры: Русские форсированные, Русские, Английские
    Режиссёр: Гильермо дель Торо
    Сценарий: Гильермо дель Торо, Мэттью Роббинс
    Продюсер: Гильермо дель Торо, Каллум Грин, Джон Дж. Джашни
    Оператор: Дан Лаустсен
    Композитор: Фернандо Веласкес
    Художник: Томас Е. Сандерс, Брандт Гордон, Кейт Хоули
    Монтаж: Бернат Вилаплана
    В ролях: Миа Васиковска, Джессика Честейн, Том Хиддлстон, Чарли Ханнэм, Джим Бивер, Берн Горман, Лесли Хоуп, Даг Джонс, Джонатан Хайд, Брюс Грэй
    Бюджет: $55 000 000
    Сборы в США: $31 090 320
    Сборы в мире: + $43 366 613 = $74 456 933
    Сборы в России: $5 107 893
    Мировая премьера: 25 сентября 2015
    Премьера (РФ): 15 октября 2015, «UPI»
    Описание: Дурная слава преследует дом, что возвышается над городом. С приходом зимы он утопает в кровавых снегах. Говорят, дело в глине, проступающей на поверхность. Но ни единая душа не рискует ступить на ледяной склон… кроме нее. Она влюблена в таинственного незнакомца, живущего в древних стенах со своей сестрой. Багровый пик пробудился и уже не уснет.-Качество исходника: BDRemux (HDClub)
    Качество: BDRip
    Тип: HD (720p)
    Контейнер: M4V
    Видео: H.264, 1280x692, 1.85:1, 3 500 Kbps, 23.976 (24000/1001) fps
    Аудио 1: Русский/Дублированный (iTunes), AAC / 2.0 / 157 Kbps / 48.0 KHz
    Аудио 2: Английский/Оригинальная дорожка , AAC / 2.0 / 157 Kbps / 48.0 KHz
    Аудио 3: Русский/Дублированный (iTunes), AC-3 / 5.1 / 384 Kbps / 48.0 KHz
    Аудио 4: Английский/Оригинальная дорожка , AC-3 / 5.1 / 640 Kbps / 48.0 KHz
    Субтитры 1: Русские форсированные
    Субтитры 2: Русские полные
    Субтитры 3: Английские полные
    -

    iTunes Meta Tags

    Sort Name: Crimson Peak
    XID: Apple:vendor_id:2015-721153
    contentID: 1045315940
    Copyright: © 2015 Universal Studios. All Rights Reserved.
    Screenwriters: Гильермо дель Торо, Мэттью Роббинс
    Producers: Гильермо дель Торо, Каллум Грин, Джон Дж. Джашни
    Director: Гильермо дель Торо
    Cast: Миа Васиковска, Джессика Честейн, Том Хиддлстон, Чарли Ханнэм, Джим Бивер, Берн Горман, Лесли Хоуп, Даг Джонс, Джонатан Хайд, Брюс Грэй
    Studio: Universal Pictures
    Rating Annotation: Rated R for bloody violence, some sexual content and brief strong language.
    Rating: 5
    Long Description: Дурная слава преследует дом, что возвышается над городом. С приходом зимы он утопает в кровавых снегах. Говорят, дело в глине, проступающей на поверхность. Но ни единая душа не рискует ступить на ледяной склон... кроме нее. Она влюблена в таинственного незнакомца, живущего в древних стенах со своей сестрой. Багровый пик пробудился и уже не уснет.
    Description: Дурная слава преследует дом, что возвышается над городом. С приходом зимы он утопает в кровавых снегах. Говорят, дело в глине, проступающей на поверхность. Но ни единая душа не рискует ступить на ледяной склон... кроме нее. Она влюблена в таинственного незнакомца, живущего в древних стенах со своей сестрой. Багровый пик пробудился и уже не уснет.
    Release Date: 2015-09-25T08:00:00Z
    Genre: Thriller
    Artist: Guillermo del Toro
    Name: Crimson Peak

    MediaInfo

    General
    Complete name : /Users/imac/HandBrake/Crimson Peak (720p HD).m4v
    Format : MPEG-4
    Codec ID : M4V  (M4V /M4A /mp42/isom)
    File size : 4.01 GiB
    Duration : 1h 58mn
    Overall bit rate mode : Variable
    Overall bit rate : 4 841 Kbps
    Movie name : Crimson Peak
    Performer : Guillermo del Toro
    Director : Гильермо дель Торо
    Actor : Миа Васиковска / Джессика Честейн / Том Хиддлстон / Чарли Ханнэм / Джим Бивер / Берн Горман / Лесли Хоуп / Даг Джонс / Джонатан Хайд / Брюс Грэй
    Screenplay by : Гильермо дель Торо / Мэттью Роббинс
    Producer : Гильермо дель Торо / Каллум Грин / Джон Дж. Джашни
    Production studio : Universal Pictures
    Genre : Thriller
    ContentType : Short Film
    Description : Дурная слава преследует дом, что возвышается над городом. С приходом зимы он утопает в кровавых снегах. Говорят, дело в глине, проступающей на поверхность. Но ни единая душа не рискует ступить на ледяной склон... кроме нее. Она влюблена в таинственного незнакомца, живущего в древних стенах со своей сестрой. Багровый пик пробудился и уже не уснет.
    Recorded date : UTC 2015-09-25 08:00:00
    Encoded date : UTC 2016-01-31 08:27:04
    Tagged date : UTC 2016-01-31 08:28:35
    Copyright : © 2015 Universal Studios. All Rights Reserved.
    Cover : Yes
    Rating : None
    Title/Sort : Crimson Peak
    LongDescription : Дурная слава преследует дом, что возвышается над городом. С приходом зимы он утопает в кровавых снегах. Говорят, дело в глине, проступающей на поверхность. Но ни единая душа не рискует ступить на ледяной склон... кроме нее. Она влюблена в таинственного незнакомца, живущего в древних стенах со своей сестрой. Багровый пик пробудился и уже не уснет.
    HDVideo : Yes
    AppleStoreCatalogID : 1045315940
    Vendor : Apple:vendor_id:2015-721153
    ContentRating : mpaa|R|400|Rated R for bloody violence, some sexual content and brief strong language.
    Video #1
    ID : 1
    Format : AVC
    Format/Info : Advanced Video Codec
    Format profile : High@L3.1
    Format settings, CABAC : No
    Format settings, ReFrames : 3 frames
    Codec ID : avc1
    Codec ID/Info : Advanced Video Coding
    Duration : 1h 58mn
    Source duration : 1h 58mn
    Bit rate : 3 500 Kbps
    Width : 1 280 pixels
    Height : 692 pixels
    Display aspect ratio : 1.85:1
    Frame rate mode : Variable
    Frame rate : 23.976 (24000/1001) fps
    Minimum frame rate : 23.974 fps
    Maximum frame rate : 23.981 fps
    Color space : YUV
    Chroma subsampling : 4:2:0
    Bit depth : 8 bits
    Scan type : Progressive
    Bits/(Pixel*Frame) : 0.165
    Stream size : 2.90 GiB (72%)
    Source stream size : 2.90 GiB (72%)
    Title : Main Program
    Writing library : x264 core 142 r2479 dd79a61
    Encoding settings : cabac=0 / ref=3 / deblock=1:-3:-3 / analyse=0x3:0x113 / me=umh / subme=9 / psy=1 / psy_rd=1.00:0.15 / mixed_ref=1 / me_range=32 / chroma_me=1 / trellis=0 / 8x8dct=1 / cqm=0 / deadzone=21,11 / fast_pskip=0 / chroma_qp_offset=-2 / threads=36 / lookahead_threads=3 / sliced_threads=0 / nr=0 / decimate=0 / interlaced=0 / bluray_compat=0 / constrained_intra=0 / bframes=3 / b_pyramid=0 / b_adapt=2 / b_bias=0 / direct=1 / weightb=0 / open_gop=0 / weightp=0 / keyint=240 / keyint_min=24 / scenecut=40 / intra_refresh=0 / rc_lookahead=40 / rc=2pass / mbtree=1 / bitrate=3500 / ratetol=1.0 / qcomp=0.65 / qpmin=0 / qpmax=69 / qpstep=4 / cplxblur=20.0 / qblur=0.5 / vbv_maxrate=9500 / vbv_bufsize=9500 / nal_hrd=none / filler=0 / ip_ratio=1.40 / aq=1:1.10
    Language : English
    Encoded date : UTC 2016-01-31 08:27:04
    Tagged date : UTC 2016-01-31 08:27:10
    Color range : Limited
    Color primaries : BT.709
    Transfer characteristics : BT.709
    Matrix coefficients : BT.709
    Menus : 9,10
    Video #2
    ID : 10
    Format : JPEG
    Codec ID : jpeg
    Duration : 1h 58mn
    Bit rate mode : Variable
    Bit rate : 1 078 bps
    Width : 640 pixels
    Height : 346 pixels
    Display aspect ratio : 1.85:1
    Frame rate mode : Variable
    Frame rate : 0.003 fps
    Minimum frame rate : 0.002 fps
    Maximum frame rate : 0.004 fps
    Color space : YUV
    Chroma subsampling : 4:2:0
    Bit depth : 8 bits
    Compression mode : Lossy
    Bits/(Pixel*Frame) : 1.623
    Stream size : 877 KiB (0%)
    Title : Chapter Images
    Language : English
    Default : No
    Encoded date : UTC 2016-01-31 08:27:51
    Tagged date : UTC 2016-01-31 08:27:51
    Menu For : 1
    Audio #1
    ID : 2
    Format : AAC
    Format/Info : Advanced Audio Codec
    Format profile : LC
    Codec ID : 40
    Duration : 1h 58mn
    Bit rate mode : Variable
    Bit rate : 157 Kbps
    Maximum bit rate : 227 Kbps
    Channel(s) : 2 channels
    Channel positions : Front: L R
    Sampling rate : 48.0 KHz
    Frame rate : 46.875 fps (1024 spf)
    Compression mode : Lossy
    Stream size : 133 MiB (3%)
    Title : Russian Stereo
    Language : Russian
    Default : Yes
    Alternate group : 1
    Encoded date : UTC 2016-01-31 08:27:04
    Tagged date : UTC 2016-01-31 08:27:46
    Fallback From : 4
    Subtitles : 6,7
    Audio #2
    ID : 3
    Format : AAC
    Format/Info : Advanced Audio Codec
    Format profile : LC
    Codec ID : 40
    Duration : 1h 58mn
    Bit rate mode : Variable
    Bit rate : 157 Kbps
    Maximum bit rate : 247 Kbps
    Channel(s) : 2 channels
    Channel positions : Front: L R
    Sampling rate : 48.0 KHz
    Frame rate : 46.875 fps (1024 spf)
    Compression mode : Lossy
    Stream size : 134 MiB (3%)
    Title : English Stereo
    Language : English
    Default : No
    Alternate group : 1
    Encoded date : UTC 2016-01-31 08:27:04
    Tagged date : UTC 2016-01-31 08:27:46
    Fallback From : 5
    Audio #3
    ID : 4
    Format : AC-3
    Format/Info : Audio Coding 3
    Mode extension : CM (complete main)
    Format settings, Endianness : Big
    Codec ID : ac-3
    Duration : 1h 58mn
    Bit rate mode : Constant
    Bit rate : 384 Kbps
    Channel(s) : 6 channels
    Channel positions : Front: L C R, Side: L R, LFE
    Sampling rate : 48.0 KHz
    Frame rate : 31.250 fps (1536 spf)
    Bit depth : 16 bits
    Compression mode : Lossy
    Stream size : 326 MiB (8%)
    Title : Russian DD 5.1
    Language : Russian
    Default : Inherited From: 2
    Alternate group : 1
    Encoded date : UTC 2016-01-31 08:27:04
    Tagged date : UTC 2016-01-31 08:27:46
    Fallback To : 2
    Subtitles : 6,7
    Audio #4
    ID : 5
    Format : AC-3
    Format/Info : Audio Coding 3
    Mode extension : CM (complete main)
    Format settings, Endianness : Big
    Codec ID : ac-3
    Duration : 1h 58mn
    Bit rate mode : Constant
    Bit rate : 640 Kbps
    Channel(s) : 6 channels
    Channel positions : Front: L C R, Side: L R, LFE
    Sampling rate : 48.0 KHz
    Frame rate : 31.250 fps (1536 spf)
    Bit depth : 16 bits
    Compression mode : Lossy
    Stream size : 543 MiB (13%)
    Title : English DD 5.1
    Language : English
    Default : No
    Alternate group : 1
    Encoded date : UTC 2016-01-31 08:27:04
    Tagged date : UTC 2016-01-31 08:27:46
    Fallback To : 3
    Text #1
    ID : 6
    Format : Timed Text
    Muxing mode : sbtl
    Codec ID : tx3g
    Duration : 1h 39mn
    Bit rate mode : Variable
    Bit rate : 1 bps
    Stream size : 1 020 Bytes (0%)
    Title : Russian forced
    Language : Russian
    Default : Yes
    Forced : Yes
    Alternate group : 2
    Encoded date : UTC 2016-01-31 08:27:04
    Tagged date : UTC 2016-01-31 08:27:37
    Subtitles For : 2,4
    Full Alternative : 7
    Text #2
    ID : 7
    Format : Timed Text
    Muxing mode : sbtl
    Codec ID : tx3g
    Duration : 1h 53mn
    Bit rate mode : Variable
    Bit rate : 84 bps
    Stream size : 69.9 KiB (0%)
    Title : Russian full
    Language : Russian
    Default : No
    Forced : No
    Alternate group : 2
    Encoded date : UTC 2016-01-31 08:27:04
    Tagged date : UTC 2016-01-31 08:27:44
    Subtitles For : 2,4
    Forced Alternative : 6
    Text #3
    ID : 8
    Format : Timed Text
    Muxing mode : sbtl
    Codec ID : tx3g
    Duration : 1h 51mn
    Bit rate mode : Variable
    Bit rate : 59 bps
    Stream size : 48.2 KiB (0%)
    Title : English full
    Language : English
    Default : No
    Forced : No
    Alternate group : 2
    Encoded date : UTC 2016-01-31 08:27:04
    Tagged date : UTC 2016-01-31 08:27:44
    Menu #1
    00:00:00.000 : Chapter 1
    00:06:02.612 : Chapter 2
    00:11:01.286 : Chapter 3
    00:15:29.804 : Chapter 4
    00:21:13.189 : Chapter 5
    00:25:53.010 : Chapter 6
    00:31:14.748 : Chapter 7
    00:39:26.447 : Chapter 8
    00:45:40.696 : Chapter 9
    00:51:57.114 : Chapter 10
    00:56:11.660 : Chapter 11
    01:02:05.180 : Chapter 12
    01:08:20.013 : Chapter 13
    01:14:24.919 : Chapter 14
    01:20:19.189 : Chapter 15
    01:25:54.232 : Chapter 16
    01:30:38.308 : Chapter 17
    01:36:09.055 : Chapter 18
    01:43:21.153 : Chapter 19
    01:51:24.219 : Chapter 20
    Menu #2
    ID : 9
    Codec ID : text
    Duration : 1h 58mn
    Language : English
    Encoded date : UTC 2016-01-31 08:27:46
    Tagged date : UTC 2016-01-31 08:27:46
    Menu For : 1
    00:00:00.000 : Chapter 1
    00:06:02.612 : Chapter 2
    00:11:01.286 : Chapter 3
    00:15:29.804 : Chapter 4
    00:21:13.189 : Chapter 5
    00:25:53.010 : Chapter 6
    00:31:14.748 : Chapter 7
    00:39:26.447 : Chapter 8
    00:45:40.696 : Chapter 9
    00:51:57.114 : Chapter 10
    00:56:11.660 : Chapter 11
    01:02:05.180 : Chapter 12
    01:08:20.013 : Chapter 13
    01:14:24.919 : Chapter 14
    01:20:19.189 : Chapter 15
    01:25:54.232 : Chapter 16
    01:30:38.308 : Chapter 17
    01:36:09.055 : Chapter 18
    01:43:21.153 : Chapter 19
    01:51:24.219 : Chapter 20
    Bit rate mode : VBR

    x264 лог

    x264 [info]: frame I:1567  Avg QP:16.27  size:110216
    x264 [info]: frame P:65720 Avg QP:18.24  size: 31988
    x264 [info]: frame B:103512 Avg QP:20.83  size:  8066
    x264 [info]: consecutive B-frames:  6.7% 23.9% 41.1% 28.3%
    x264 [info]: mb I  I16..4: 11.1% 57.1% 31.8%
    x264 [info]: mb P  I16..4:  2.1%  4.5%  1.9%  P16..4: 48.7% 20.5%  9.1%  0.0%  0.0%    skip:13.1%
    x264 [info]: mb B  I16..4:  0.1%  0.6%  0.3%  B16..8: 43.8%  7.9%  1.1%  direct: 3.6%  skip:42.8%  L0:38.4% L1:53.9% BI: 7.7%
    x264 [info]: 8x8 transform intra:54.4% inter:47.7%
    x264 [info]: coded y,uvDC,uvAC intra: 71.7% 81.7% 67.8% inter: 18.0% 27.8% 19.5%
    x264 [info]: i16 v,h,dc,p: 53% 14%  7% 26%
    x264 [info]: i8 v,h,dc,ddl,ddr,vr,hd,vl,hu: 13%  6%  6% 11% 15% 15% 13% 12% 10%
    x264 [info]: i4 v,h,dc,ddl,ddr,vr,hd,vl,hu: 18%  6%  5% 11% 15% 15% 12% 10%  7%
    x264 [info]: i8c dc,h,v,p: 55% 14% 19% 12%
    x264 [info]: ref P L0: 75.3% 14.7% 10.0%
    x264 [info]: ref B L0: 83.1% 16.9%
    x264 [info]: kb/s:3492.40

    Скриншоты

    -

    Релиз подготовлен для просмотра на Apple TV, iPad, iPhone, iPod Touch.
    Для просмотра данного релиза на компьютере с ОС Windows рекомендуется использовать VLC media player
    Скачать .torrent

    Скачать торрент-файл бесплатно и на максимальной скорости!

    Как скачивать? · Что такое торрент? · Рейтинг и ограничения

    !ВНИМАНИЕ!
    Сайт не распространяет и не хранит электронные версии произведений, а занимается лишь лишь предоставлением доступа к создаваемому пользователями каталогу ссылок на торрент-файлы, которые содержат только списки хеш-сумм, убедительная просьба с жалобами обращаться напрямую к пользователю. Файлы для обмена на трекере предоставлены пользователями сайта, и администрация не несёт ответственности за их содержание. Просьба не заливать файлы, защищенные авторскими правами, а также файлы нелегального содержания!


    _________________
    [Профиль] [ЛС]
    Показать сообщения:    
    Ответить на тему

    Текущее время: Сегодня, в 22:23

    Часовой пояс: GMT + 2



    Вы не можете начинать темы
    Вы не можете отвечать на сообщения
    Вы не можете редактировать свои сообщения
    Вы не можете удалять свои сообщения
    Вы не можете голосовать в опросах
    Вы не можете прикреплять файлы к сообщениям
    Вы не можете скачивать файлы