Register  ·  Log in
Forgot password?

  • Терминус / Конечная Цель / Terminus (Марк Ферми / Marc Furmie) [2015, Австралия, Фантастика, HDRip] VO (datynet; перевод: Куценко)

    Reply to topic
    Author Message


    Post 31-Jan-2016 16:32



    Терминус / Конечная Цель / TerminusСтрана: Австралия
    Жанр: Фантастика
    Год выпуска: 2015
    Продолжительность: 01:33:40
    Перевод: Одноголосый закадровый datynet; перевод: Куценко
    Cубтитры: нет
    Режиссер: Марк Ферми / Marc Furmie
    В ролях: Стив Ле Маркванд, Брен Фостер, Кэтерин Хикс, Уильям Эммонс, Брендан Клиркин, Джэй Кутрэ, Кендра Эпплтон, Тодд Ласанс, Винсент Андриано, Джон Мэннинг
    Описание: Оказавшись, в результате несчастного случая, на грани между жизнью и смертью, Дэвид Чемберлен делает беспрецедентное открытие, которое предопределит не только судьбу его семьи, но и судьбу всего человечества...
    Доп. информация:


    Качество видео: HDRip
    Формат видео: AVI
    Видео: 720x304 (2.37:1), 24 fps, XviD MPEG-4 ~1749 kbps avg, 0.33 bit/pixel
    Аудио: 48 kHz, AC3 Dolby Digital, 3/2 (L,C,R,l,r) + LFE ch, ~448 kbps


    Complete name : E:\Terminus.2015.HDRip.avi
    Format : AVI
    Format/Info : Audio Video Interleave
    File size : 1.44 GiB
    Duration : 1h 33mn
    Overall bit rate : 2 207 Kbps
    Writing application : AVI-Mux GUI, Feb 16 201019:42:50
    Writing library : VirtualDub build 35576/release
    ID : 0
    Format : MPEG-4 Visual
    Format profile : Advanced Simple@L5
    Format settings, BVOP : 2
    Format settings, QPel : No
    Format settings, GMC : No warppoints
    Format settings, Matrix : Default (H.263)
    Codec ID : XVID
    Codec ID/Hint : XviD
    Duration : 1h 33mn
    Bit rate : 1 750 Kbps
    Width : 720 pixels
    Height : 304 pixels
    Display aspect ratio : 2.35:1
    Frame rate : 24.000 fps
    Color space : YUV
    Chroma subsampling : 4:2:0
    Bit depth : 8 bits
    Scan type : Progressive
    Compression mode : Lossy
    Bits/(Pixel*Frame) : 0.333
    Stream size : 1.14 GiB (79%)
    Writing library : XviD 66
    ID : 1
    Format : AC-3
    Format/Info : Audio Coding 3
    Mode extension : CM (complete main)
    Format settings, Endianness : Big
    Codec ID : 2000
    Duration : 1h 33mn
    Bit rate mode : Constant
    Bit rate : 448 Kbps
    Channel(s) : 6 channels
    Channel positions : Front: L C R, Side: L R, LFE
    Sampling rate : 48.0 KHz
    Bit depth : 16 bits
    Compression mode : Lossy
    Stream size : 300 MiB (20%)
    Alignment : Aligned on interleaves
    Interleave, duration : 42 ms (1.00 video frame)
    Interleave, preload duration : 512 ms

    Скриншот c названием фильма


    Download .torrent

    Download free and at maximum speed!

    How to Download? · What is a torrent? · Ratings and Limitations

    The site does not extend and does not store electronic(digital) versions of products, and only gives access to a reference catalogue created by users on torrent-files which contain only lists of the hash-sums, the earnest entreaty, with complaints(abuse) to access directly to the user. Files for an exchange on tracker are given by users of a site, and the administration does not bear the responsibility for their maintenance. The request to not fill in the files protected by copyrights, and also files of the illegal maintenance!

    [Profile] [PM]
    Display posts from previous:    
    Reply to topic

    The time now is: Today 18:51

    All times are GMT + 3 Hours

    You cannot post new topics in this forum
    You cannot reply to topics in this forum
    You cannot edit your posts in this forum
    You cannot delete your posts in this forum
    You cannot vote in polls in this forum
    You cannot attach files in this forum
    You cannot download files in this forum