BitTorrentTracker PerecTracker.org
BitTorrentTracker PerecTracker.org
    
Регистрация  ·  Вход
 
 · 
Забыли пароль?

  • Багровый пик / Crimson Peak (Гильермо дель Торо / Guillermo del Toro) [2015, США, Канада, фэнтези, триллер, драма, мелодрама, детектив, BDRip-AVC] Dub (iTunes) + Sub Rus, Ukr, Eng + Original Eng

    Ответить на тему
     
    Автор Сообщение

    rechyn

    Создавать темы 31-Янв-2016 15:32

           

    [Цитировать]

    Багровый пик
    Crimson Peak
    «Beware»
    -Страна: США, Канада
    Жанр: фэнтези, триллер, драма, мелодрама, детектив
    Год выпуска: 2015
    Продолжительность: 01:58:43
    Перевод: Профессиональный (дублированный) iTunes
    Cубтитры: Rus [Forced, Full], Ukr [Full], Eng SDH
    Оригинальная аудиодорожка: английский-Режиссер
    Гильермо дель Торо / Guillermo del Toro
    В ролях:
    Миа Васиковска | Mia Wasikowska
    Джессика Честейн | Jessica Chastain
    Том Хиддлстон | Tom Hiddleston
    Чарли Ханнэм, Джим Бивер, Берн Горман, Лесли Хоуп, Даг Джонс, Джонатан Хайд, Брюс Грэй, Эмили Куттс, Алек Стокуэлл, Бриджитт Робинсон, Джиллиан Феррье, Тамара Хоуп, Кимберли-Сью Мюррэй, София Уэллс, Джоанна Дуглас, Билл Лэйк, Джим Уотсон-ОписаниеДурная слава преследует дом, что возвышается над городом. С приходом зимы он утопает в кровавых снегах. Говорят, дело в глине, проступающей на поверхность. Но ни единая душа не рискует ступить на ледяной склон… кроме нее. Она влюблена в таинственного незнакомца, живущего в древних стенах со своей сестрой. Багровый пик пробудился и уже не уснет.-Сэмпл

    IMDb: 6.70 (52 477)
    Качество видео: BDRip-AVC CRIMSON_PEAK_REMUX_HDCLUB
    Формат видео: MKV
    Видео: AVC 4048 Kbps 1136 x 614 (1.850) 23.976 fps
    Аудио: AC-3 384 Kbps channels, 48.0 KHz Rus iTunes
    Аудио 2: AC-3 448 Kbps channels, 48.0 KHz Eng
    Формат субтитров: softsub (SRT)
    MediaInfo | Log

    Log

    x264 [info]: frame I:1246 Avg QP:14.84 size:107794
    x264 [info]: frame P:35711 Avg QP:16.62 size: 43017
    x264 [info]: frame B:133842 Avg QP:19.21 size: 15098
    x264 [info]: consecutive B-frames: 1.4% 2.0% 7.7% 18.4% 18.8% 44.5% 3.8% 0.6% 0.4% 0.1% 1.8% 0.1% 0.1% 0.1% 0.2%
    x264 [info]: mb I I16..4: 7.3% 76.0% 16.6%
    x264 [info]: mb P I16..4: 0.6% 12.7% 1.4% P16..4: 28.2% 35.5% 14.0% 2.1% 0.2% skip: 5.3%
    x264 [info]: mb B I16..4: 0.1% 1.2% 0.1% B16..8: 34.0% 21.9% 3.7% direct: 7.0% skip:32.1% L0:41.6% L1:43.4% BI:15.0%
    x264 [info]: 8x8 transform intra:85.0% inter:60.6%
    x264 [info]: direct mvs spatial:100.0% temporal:0.0%
    x264 [info]: coded y,uvDC,uvAC intra: 90.0% 91.3% 85.6% inter: 24.9% 36.7% 27.1%
    x264 [info]: i16 v,h,dc,p: 34% 17% 7% 42%
    x264 [info]: i8 v,h,dc,ddl,ddr,vr,hd,vl,hu: 12% 7% 8% 10% 13% 13% 12% 12% 13%
    x264 [info]: i4 v,h,dc,ddl,ddr,vr,hd,vl,hu: 16% 8% 8% 8% 14% 13% 12% 10% 11%
    x264 [info]: i8c dc,h,v,p: 54% 14% 14% 18%
    x264 [info]: Weighted P-Frames: Y:4.6% UV:2.8%
    x264 [info]: ref P L0: 46.7% 10.1% 18.3% 6.5% 5.3% 3.6% 3.2% 1.7% 1.6% 1.3% 1.3% 0.2% 0.0%
    x264 [info]: ref B L0: 75.4% 11.6% 4.9% 2.6% 1.7% 1.4% 1.0% 0.7% 0.4% 0.2%
    x264 [info]: ref B L1: 93.0% 7.0%
    x264 [info]: kb/s:4145.36
    x264 [total]: encoded 170799 frames, 6.64 fps, 4145.36 kb/s, duration 7:08:29.39
    Format : Matroska
    Format version : Version 4 / Version 2
    File size : 4.13 GiB
    Duration : 1h 58mn
    Overall bit rate : 4 979 Kbps
    Encoded date : UTC 2016-01-30 01:10:56
    Writing application : mkvmerge v6.7.0 ('Back to the Ground') 32bit built on Jan 8 2014 15:03:17
    Writing library : libebml v1.3.0 + libmatroska v1.4.1
    Video
    ID : 1
    Format : AVC
    Format/Info : Advanced Video Codec
    Format profile : High@L4.1
    Format settings, CABAC : Yes
    Format settings, ReFrames : 11 frames
    Codec ID : V_MPEG4/ISO/AVC
    Duration : 1h 58mn
    Bit rate : 4 048 Kbps
    Width : 1 136 pixels
    Height : 614 pixels
    Display aspect ratio : 1.85:1
    Frame rate mode : Constant
    Frame rate : 23.976 fps
    Color space : YUV
    Chroma subsampling : 4:2:0
    Bit depth : 8 bits
    Scan type : Progressive
    Bits/(Pixel*Frame) : 0.242
    Stream size : 3.36 GiB (81%)
    Title : Crimson Peak (2015) [perectracker.org]
    Writing library : x264 core 148 r2638kMod 7599210
    Encoding settings : cabac=1 / ref=11 / deblock=1:-2:-2 / analyse=0x3:0x133 / me=umh / subme=11 / psy=1 / fade_compensate=0.00 / psy_rd=1.00:0.05 / mixed_ref=1 / me_range=48 / chroma_me=1 / trellis=2 / 8x8dct=1 / cqm=0 / deadzone=21,11 / fast_pskip=0 / chroma_qp_offset=-3 / threads=12 / lookahead_threads=3 / sliced_threads=0 / nr=0 / decimate=1 / interlaced=0 / bluray_compat=0 / constrained_intra=0 / fgo=0 / bframes=14 / b_pyramid=2 / b_adapt=2 / b_bias=0 / direct=3 / weightb=1 / open_gop=0 / weightp=2 / keyint=250 / keyint_min=23 / scenecut=40 / intra_refresh=0 / rc_lookahead=60 / rc=crf / mbtree=0 / crf=18.1000 / qcomp=0.60 / qpmin=0 / qpmax=69 / qpstep=4 / vbv_maxrate=50000 / vbv_bufsize=62500 / crf_max=0.0 / nal_hrd=none / filler=0 / ip_ratio=1.40 / pb_ratio=1.30 / aq=3:0.90
    Language : English
    Default : Yes
    Forced : No
    Audio #1
    ID : 2
    Format : AC-3
    Format/Info : Audio Coding 3
    Mode extension : CM (complete main)
    Format settings, Endianness : Big
    Codec ID : A_AC3
    Duration : 1h 58mn
    Bit rate mode : Constant
    Bit rate : 384 Kbps
    Channel(s) : 6 channels
    Channel positions : Front: L C R, Side: L R, LFE
    Sampling rate : 48.0 KHz
    Compression mode : Lossy
    Stream size : 326 MiB (8%)
    Title : DUB [iTunes]
    Language : Russian
    Default : Yes
    Forced : No
    Audio #2
    ID : 3
    Format : AC-3
    Format/Info : Audio Coding 3
    Mode extension : CM (complete main)
    Format settings, Endianness : Big
    Codec ID : A_AC3
    Duration : 1h 58mn
    Bit rate mode : Constant
    Bit rate : 448 Kbps
    Channel(s) : 6 channels
    Channel positions : Front: L C R, Side: L R, LFE
    Sampling rate : 48.0 KHz
    Compression mode : Lossy
    Stream size : 380 MiB (9%)
    Title : Original
    Language : English
    Default : No
    Forced : No
    Text #1
    ID : 4
    Format : UTF-8
    Codec ID : S_TEXT/UTF8
    Codec ID/Info : UTF-8 Plain Text
    Title : Forced
    Language : Russian
    Default : Yes
    Forced : No
    Text #2
    ID : 5
    Format : UTF-8
    Codec ID : S_TEXT/UTF8
    Codec ID/Info : UTF-8 Plain Text
    Title : Full
    Language : Russian
    Default : No
    Forced : No
    Text #3
    ID : 6
    Format : UTF-8
    Codec ID : S_TEXT/UTF8
    Codec ID/Info : UTF-8 Plain Text
    Title : Full
    Language : Ukrainian
    Default : No
    Forced : No
    Text #4
    ID : 7
    Format : UTF-8
    Codec ID : S_TEXT/UTF8
    Codec ID/Info : UTF-8 Plain Text
    Title : SDH
    Language : English
    Default : No
    Forced : No
    Menu
    00:00:00.000 : en:00:00:00.000
    00:06:02.528 : en:00:06:02.528
    00:11:01.201 : en:00:11:01.201
    00:15:29.720 : en:00:15:29.720
    00:21:13.105 : en:00:21:13.105
    00:25:52.925 : en:00:25:52.925
    00:31:14.663 : en:00:31:14.663
    00:39:26.822 : en:00:39:26.822
    00:45:40.612 : en:00:45:40.612
    00:51:57.030 : en:00:51:57.030
    00:56:11.576 : en:00:56:11.576
    01:02:05.096 : en:01:02:05.096
    01:08:19.929 : en:01:08:19.929
    01:14:24.835 : en:01:14:24.835
    01:20:19.104 : en:01:20:19.104
    01:25:54.149 : en:01:25:54.149
    01:30:38.890 : en:01:30:38.890
    01:36:09.637 : en:01:36:09.637
    01:43:21.069 : en:01:43:21.069
    01:51:24.135 : en:01:51:24.135

    Скриншоты




    Скачать .torrent

    Скачать торрент-файл бесплатно и на максимальной скорости!

    Как скачивать? · Что такое торрент? · Рейтинг и ограничения

    !ВНИМАНИЕ!
    Сайт не распространяет и не хранит электронные версии произведений, а занимается лишь лишь предоставлением доступа к создаваемому пользователями каталогу ссылок на торрент-файлы, которые содержат только списки хеш-сумм, убедительная просьба с жалобами обращаться напрямую к пользователю. Файлы для обмена на трекере предоставлены пользователями сайта, и администрация не несёт ответственности за их содержание. Просьба не заливать файлы, защищенные авторскими правами, а также файлы нелегального содержания!


    _________________
    [Профиль] [ЛС]
    Показать сообщения:    
    Ответить на тему

    Текущее время: Сегодня, в 18:23

    Часовой пояс: GMT + 2



    Вы не можете начинать темы
    Вы не можете отвечать на сообщения
    Вы не можете редактировать свои сообщения
    Вы не можете удалять свои сообщения
    Вы не можете голосовать в опросах
    Вы не можете прикреплять файлы к сообщениям
    Вы не можете скачивать файлы