BitTorrentTracker PerecTracker.org
BitTorrentTracker PerecTracker.org
    
Регистрация  ·  Вход
 
 · 
Забыли пароль?

  • По зову сердца / Coup de coeur (Доминик Ладож / Dominique Ladoge) [2014, Франция, Бельгия, трагикомедия, экранизация, DVB] Original (Fre) + Sub (Rus, Eng, Fre, Deu)

    Ответить на тему
     
    Автор Сообщение

    rechyn

    Создавать темы 31-Янв-2016 15:32

           

    [Цитировать]

    По зову сердца
    Coup de coeur-Страна: Франция, Бельгия
    Жанр: трагикомедия, экранизация
    Год выпуска: 2014
    Продолжительность: 01:23:58Перевод: Субтитры (русский перевод Е.Маньен, Éclair Media)
    Cубтитры: русские, английские, французские, немецкие, нидерландские, румынские
    Оригинальная аудиодорожка: французский
    Режиссер: Доминик Ладож / Dominique Ladoge
    В ролях: Пьер Ардити / Pierre Arditi (Jean-Pierre Berthelot), Фирмин Ришар / Firmine Richard (Yolande), Мари Бюнель / Marie Bunel (Nathalie Brac), Анри Гибе / Henri Guybet (Gaston), Аньес Сораль / Agnès Soral (Chantal), Реми Рубака / Rémy Roubakha (Le Zonard)
    Описание: По автобиографическому роману кардиохирурга профессора Алена Делоша / Alain Deloche "Скажите мне правду, доктор / Dites-moi la vérité docteur" (2011).
    Фильм, как и роман, основан на истории из жизни известного французского кардиохирурга Алена Делоша, учредителя фонда "Цепь надежды / La Chaîne de l'espoir" и соучредителя фонда "Врачи мира / Médecins du monde". Блестящий кардиохирург Жан-Пьер Бертело совсем не обращает внимания на эмоциональные переживания своих пациентов. Ведь от него, как от Создателя, зависят их жизни. Но когда он начинает испытывать проблемы с собственным сердцем, и ему предстоит серьезная операция, приходит переосмысление событий от перестановки ролей: врач -> пациент.
    Доп. информация: Hot Bird (13.0°E) TV5MONDE Europe DVB-S. Во время нефранцузской речи вшитые французские субтитры.

    Качество видео: DVB
    Формат видео: TS
    Видео: MPEG Video 2, 720x576@1024x576 (16:9), 25 fps, ~3269 kbps avg, 0.315 bit/pixel
    Аудио: MPEG Audio 2, 2 ch, 48 kHz, 192 kbps - французский
    Формат субтитров: PGS

    MediaInfo

    ОбщееИдентификатор : 1 (0x1)Полное имя : [apreder]Coup_de_coeur(2014)DVB.tsФормат : MPEG-TSРазмер файла : 2,14 ГбайтПродолжительность : 1 ч. 23 м.Режим общего битрейта : ПеременныйОбщий поток : 3643 Кбит/секМаксимальный общий битрейт : 35,5 Мбит/сек
    ВидеоИдентификатор : 4113 (0x1011)Идентификатор меню : 1 (0x1)Формат : MPEG VideoВерсия формата : Version 2Профиль формата : Main@MainПараметр BVOP формата : ДаПараметр матрицы формата : ВыборочнаяПараметр GOP формата : VariableFormat_Settings_PictureStructure : FrameИдентификатор кодека : 2Продолжительность : 1 ч. 23 м.Вид битрейта : ПеременныйБитрейт : 3269 Кбит/секШирина : 720 пикселейВысота : 576 пикселейСоотношение сторон : 16:9Частота кадров : 25,000 кадров/секСтандарт вещания : PALЦветовое пространство : YUVСубдискретизация насыщенности : 4:2:0Битовая глубина : 8 битТип развёртки : ЧересстрочнаяПорядок развёртки : Верхнее поле первоеМетод сжатия : С потерямиБит/(Пиксели*Кадры) : 0.315Временной код первого кадра : 00:00:00:00Оригинал временного кода : Group of pictures headerРазмер потока : 1,92 Гбайт (90%)
    АудиоИдентификатор : 4352 (0x1100)Идентификатор меню : 1 (0x1)Формат : MPEG AudioВерсия формата : Version 1Профиль формата : Layer 2Режим : Joint stereoРасширение режима : Intensity Stereo + MS StereoИдентификатор кодека : 4Продолжительность : 1 ч. 23 м.Вид битрейта : ПостоянныйБитрейт : 192 Кбит/секКаналы : 2 каналаЧастота : 48,0 КГцМетод сжатия : С потерямиРазмер потока : 115 Мбайт (5%)Язык : French
    Текст #1Идентификатор : 4608 (0x1200)Идентификатор меню : 1 (0x1)Формат : PGSИдентификатор кодека : 144Продолжительность : 1 ч. 23 м.Задержка видео : 3 с. 720 мс.Язык : Russian
    Текст #2Идентификатор : 4609 (0x1201)Идентификатор меню : 1 (0x1)Формат : PGSИдентификатор кодека : 144Продолжительность : 1 ч. 23 м.Задержка видео : 3 с. 720 мс.Язык : English
    Текст #3Идентификатор : 4610 (0x1202)Идентификатор меню : 1 (0x1)Формат : PGSИдентификатор кодека : 144Продолжительность : 1 ч. 23 м.Задержка видео : 15 с.Язык : French
    Текст #4Идентификатор : 4611 (0x1203)Идентификатор меню : 1 (0x1)Формат : PGSИдентификатор кодека : 144Продолжительность : 1 ч. 23 м.Задержка видео : 3 с. 720 мс.Язык : German
    Текст #5Идентификатор : 4612 (0x1204)Идентификатор меню : 1 (0x1)Формат : PGSИдентификатор кодека : 144Продолжительность : 1 ч. 23 м.Задержка видео : 3 с. 720 мс.Язык : Dutch
    Текст #6Идентификатор : 4613 (0x1205)Идентификатор меню : 1 (0x1)Формат : PGSИдентификатор кодека : 144Задержка видео : 3 с. 800 мс.Язык : Romanian

    Скриншот c названием фильма

    Скриншоты

    Резервные скриншоты


    -[2'878]
    Скачать .torrent

    Скачать торрент-файл бесплатно и на максимальной скорости!

    Как скачивать? · Что такое торрент? · Рейтинг и ограничения

    !ВНИМАНИЕ!
    Сайт не распространяет и не хранит электронные версии произведений, а занимается лишь лишь предоставлением доступа к создаваемому пользователями каталогу ссылок на торрент-файлы, которые содержат только списки хеш-сумм, убедительная просьба с жалобами обращаться напрямую к пользователю. Файлы для обмена на трекере предоставлены пользователями сайта, и администрация не несёт ответственности за их содержание. Просьба не заливать файлы, защищенные авторскими правами, а также файлы нелегального содержания!


    _________________
    [Профиль] [ЛС]
    Показать сообщения:    
    Ответить на тему

    Текущее время: Сегодня, в 08:08

    Часовой пояс: GMT + 2



    Вы не можете начинать темы
    Вы не можете отвечать на сообщения
    Вы не можете редактировать свои сообщения
    Вы не можете удалять свои сообщения
    Вы не можете голосовать в опросах
    Вы не можете прикреплять файлы к сообщениям
    Вы не можете скачивать файлы