BitTorrentTracker PerecTracker.org
BitTorrentTracker PerecTracker.org
    
Регистрация  ·  Вход
 
 · 
Забыли пароль?

  • Убрать из друзей / Unfriended (Леван Габриадзе / Levan Gabriadze) [2015, США, Россия, Ужасы, триллер, детектив, WEB-DLRip] [Локализованный видеоряд] Dub

    Ответить на тему
     
    Автор Сообщение

    rechyn

    Создавать темы 31-Янв-2016 03:10

           

    [Цитировать]

    Убрать из друзей / Unfriended
    «С такими друзьями враги не нужны»
    -Год выхода: 2015
    Выпущено: США, Россия / Bazelevs Production, Blumhouse Productions
    Жанр: криминал, триллер, драма
    Продолжительность: 01:22:01
    Перевод: Профессиональный (полное дублирование)
    Субтитры: нет-Режиссер:
    Леван Габриадзе / Levan Gabriadze-В ролях:
    Шелли Хенниг, Моусес Сторм, Рени Олстэд, Уилл Пельтц, Джейкоб Высоцки, Кортни Хэлверсон, Хезер Соссамэн, Мэттью Борер, Мики Ривер, Кэл Барнс-О фильме:
    Обычный вечер после школы. К скайпу влюбленных Блэр и Митча подключаются друзья — Адам, Джес, Кен и Вэл… и кто-то седьмой с ником Billy227. Все уверены, что это компьютерный глюк, пока неизвестный не начинает им писать. Билли хочет знать, кто выложил в Сеть скандальное видео с их одноклассницей Лорой Барнс, из-за которого девушка покончила с собой. И он готов выяснить это любой ценой. Друзьям кажется, что можно просто выйти из чата, но это только кажется.-Релиз групп
    | | IMDB | КиноПоиск | Сэмпл |-Качество: WEB-DLRip [Unfriended.2014.720p.WEB-DL.Rus.HDCLUB]
    Формат: AVI
    Видео: 704x400 (1.76:1), 24.000 fps, XviD build 73 ~2143 kbps avg, 0.32 bit/pixel
    Аудио: 48 kHz, AC3 Dolby Digital, 3/2 (L,C,R,l,r) + LFE ch, ~384.00 kbps avg - iTunes Russia-

    Скриншоты

    -

    MediaInfo

    Общее
    Полное имя                               : D:\Ubrat`_iz_druzei_2015_WEB-DLRip_iT_by_Dalemake.avi
    Формат                                   : AVI
    Формат/Информация                        : Audio Video Interleave
    Размер файла                             : 1,45 Гбайт
    Продолжительность                        : 1 ч. 22 м.
    Общий поток                              : 2537 Кбит/сек
    Программа кодирования                    : VirtualDubMod 1.5.10.3 | www.virtualdub-fr.org || (build 2550/release)
    Библиотека кодирования                   : VirtualDubMod build 2550/release
    Видео
    Идентификатор                            : 0
    Формат                                   : MPEG-4 Visual
    Профиль формата                          : Advanced Simple@L5
    Параметр BVOP формата                    : 1
    Параметр QPel формата                    : Нет
    Параметр GMC формата                     : Без точки перехода
    Параметр матрицы формата                 : Выборочная
    Идентификатор кодека                     : XVID
    Идентификатор кодека/Подсказка           : XviD
    Продолжительность                        : 1 ч. 22 м.
    Битрейт                                  : 2144 Кбит/сек
    Ширина                                   : 704 пикселя
    Высота                                   : 400 пикселей
    Соотношение сторон                       : 16:9
    Частота кадров                           : 24,000 кадра/сек
    Цветовое пространство                    : YUV
    Субдискретизация насыщенности            : 4:2:0
    Битовая глубина                          : 8 бит
    Тип развёртки                            : Прогрессивная
    Метод сжатия                             : С потерями
    Бит/(Пиксели*Кадры)                      : 0.317
    Размер потока                            : 1,23 Гбайт (84%)
    Библиотека кодирования                   : XviD 73
    Аудио
    Идентификатор                            : 1
    Формат                                   : AC-3
    Формат/Информация                        : Audio Coding 3
    Расширение режима                        : CM (complete main)
    Параметр Endianness формата              : Big
    Идентификатор кодека                     : 2000
    Продолжительность                        : 1 ч. 22 м.
    Вид битрейта                             : Постоянный
    Битрейт                                  : 384 Кбит/сек
    Каналы                                   : 6 каналов
    Расположение каналов                     : Front: L C R, Side: L R, LFE
    Частота                                  : 48,0 КГц
    Битовая глубина                          : 16 бит
    Метод сжатия                             : С потерями
    Размер потока                            : 225 Мбайт (15%)
    Выравнивание                             : Разделение по промежуткам
    Продолжительность промежутка             : 42  мс. (1,00 видеокадр)
    Время предзагрузки промежутка            : 500  мс.
    -
    Скачать .torrent

    Скачать торрент-файл бесплатно и на максимальной скорости!

    Как скачивать? · Что такое торрент? · Рейтинг и ограничения

    !ВНИМАНИЕ!
    Сайт не распространяет и не хранит электронные версии произведений, а занимается лишь лишь предоставлением доступа к создаваемому пользователями каталогу ссылок на торрент-файлы, которые содержат только списки хеш-сумм, убедительная просьба с жалобами обращаться напрямую к пользователю. Файлы для обмена на трекере предоставлены пользователями сайта, и администрация не несёт ответственности за их содержание. Просьба не заливать файлы, защищенные авторскими правами, а также файлы нелегального содержания!


    _________________
    [Профиль] [ЛС]
    Показать сообщения:    
    Ответить на тему

    Текущее время: Сегодня, в 08:48

    Часовой пояс: GMT + 2



    Вы не можете начинать темы
    Вы не можете отвечать на сообщения
    Вы не можете редактировать свои сообщения
    Вы не можете удалять свои сообщения
    Вы не можете голосовать в опросах
    Вы не можете прикреплять файлы к сообщениям
    Вы не можете скачивать файлы