BitTorrentTracker PerecTracker.org
BitTorrentTracker PerecTracker.org
    
Регистрация  ·  Вход
 
 · 
Забыли пароль?

  • Соседи. На тропе войны / Neighbors (Николас Столлер / Nicholas Stoller) [2014, США, комедия, BDRip] Dub CEE

    Ответить на тему
     
    Автор Сообщение

    rechyn

    Создавать темы 31-Янв-2016 03:10

           

    [Цитировать]

    Соседи. На тропе войны / Neighbors
    «Семейные против студентов»
    -Страна: США / Good Universe, Point Grey Pictures
    Жанр: комедия
    Год выпуска: 2014
    Продолжительность: 01:36:41
    Перевод: Профессиональный (дублированный) лицензия CEE
    Cубтитры: нет
    Режиссёр: Николас Столлер / Nicholas Stoller
    В ролях: Сет Роген, Зак Эфрон, Роуз Бирн, Дэйв Франко, Кристофер Минц-Плассе, Айк Баринхолц, Карла Галло, Лиза Кудроу, Хелстон Сейдж, Джеррод Кармайкл.
    Описание: Как известно, мужчины бывают двух типов: холостые и глубоко женатые. Первые молоды, мускулисты и точно магнит притягивают блондинок и шумных друзей. Вторые обитают дома, выращивают детей и поглощают сериалы по телеку. Обычно их пути не пересекаются. Но стоит им стать соседями, мужчины выходят на тропу войны.-Рейтинг
    imdb.com: 6.40 (197 519)
    kinopoisk.ru: 5.969 (39 593)
    MPAA: - лицам до 17 лет обязательно присутствие взрослого-Сэмпл: http://multi-up.com/1086692-Качество видео: BDRip [Neighbors.2014.BDRemux.1080p.ExKinoRay]
    Формат видео: AVI
    Видео: XviD build 65, 720x304 (2.37:1), 23.976 fps, ~1706 kbps avg, 0.325 bit/pixel
    Аудио: 48 kHz, AC3 Dolby Digital, 3/2 (L,C,R,l,r) + LFE ch, ~448 kbps avg (Dub)
    -

    MediaInfo

    Общее
    Полное имя : D:\Neighbors.2014.Dub.BDRip.1,46Gb.XviD.AC3.avi
    Формат : AVI
    Формат/Информация : Audio Video Interleave
    Размер файла : 1,46 Гбайт
    Продолжительность : 1 ч. 36 м.
    Общий поток : 2163 Кбит/сек
    Название фильма : Neighbors 2014
    Режиссёр : Nicholas Stoller
    Дата записи : 28.08.2014
    Программа кодирования : VirtualDubModRus 1.5.10.2 (build 2542/release)
    Библиотека кодирования : VirtualDubMod build 2542/release
    Правообладатель : Rutracker.org
    Примечание : MooN_WalkeR
    Видео
    Идентификатор : 0
    Формат : MPEG-4 Visual
    Профиль формата : Advanced Simple@L5
    Параметр BVOP формата : 1
    Параметр QPel формата : Нет
    Параметр GMC формата : Без точки перехода
    Параметр матрицы формата : Выборочная
    Идентификатор кодека : XVID
    Идентификатор кодека/Подсказка : XviD
    Продолжительность : 1 ч. 36 м.
    Битрейт : 1706 Кбит/сек
    Ширина : 720 пикселей
    Высота : 304 пикселя
    Соотношение сторон : 2,35:1
    Частота кадров : 23,976 кадра/сек
    Цветовое пространство : YUV
    Субдискретизация насыщенности : 4:2:0
    Битовая глубина : 8 бит
    Тип развёртки : Прогрессивная
    Метод сжатия : С потерями
    Бит/(Пиксели*Кадры) : 0.325
    Размер потока : 1,15 Гбайт (79%)
    Библиотека кодирования : XviD 65
    Аудио
    Идентификатор : 1
    Формат : AC-3
    Формат/Информация : Audio Coding 3
    Расширение режима : CM (complete main)
    Параметр Endianness формата : Big
    Идентификатор кодека : 2000
    Продолжительность : 1 ч. 36 м.
    Вид битрейта : Постоянный
    Битрейт : 448 Кбит/сек
    Каналы : 6 каналов
    Расположение каналов : Front: L C R, Side: L R, LFE
    Частота : 48,0 КГц
    Битовая глубина : 16 бит
    Метод сжатия : С потерями
    Размер потока : 310 Мбайт (21%)
    Выравнивание : Разделение по промежуткам
    Продолжительность промежутка : 42 мс. (1,00 видеокадр)
    Время предзагрузки промежутка : 500 мс.
    Заголовок : Dub

    Скриншоты


    Скачать .torrent

    Скачать торрент-файл бесплатно и на максимальной скорости!

    Как скачивать? · Что такое торрент? · Рейтинг и ограничения

    !ВНИМАНИЕ!
    Сайт не распространяет и не хранит электронные версии произведений, а занимается лишь лишь предоставлением доступа к создаваемому пользователями каталогу ссылок на торрент-файлы, которые содержат только списки хеш-сумм, убедительная просьба с жалобами обращаться напрямую к пользователю. Файлы для обмена на трекере предоставлены пользователями сайта, и администрация не несёт ответственности за их содержание. Просьба не заливать файлы, защищенные авторскими правами, а также файлы нелегального содержания!


    _________________
    [Профиль] [ЛС]
    Показать сообщения:    
    Ответить на тему

    Текущее время: Сегодня, в 10:40

    Часовой пояс: GMT + 2



    Вы не можете начинать темы
    Вы не можете отвечать на сообщения
    Вы не можете редактировать свои сообщения
    Вы не можете удалять свои сообщения
    Вы не можете голосовать в опросах
    Вы не можете прикреплять файлы к сообщениям
    Вы не можете скачивать файлы