BitTorrentTracker PerecTracker.org
BitTorrentTracker PerecTracker.org
    
Регистрация  ·  Вход
 
 · 
Забыли пароль?

  • Голодные игры: Сойка-пересмешница. Часть I / The Hunger Games: Mockingjay - Part 1 (Френсис Лоуренс) [2014, США, фантастика, приключения, BDRip HD (1080p, 720p), SD (480p)] DUB, AVO, Original + SUB (rus, ukr, eng)

    Ответить на тему
     
    Автор Сообщение

    Flirldrerve

    Создавать темы 30-Янв-2016 23:08

           

    [Цитировать]

    Голодные игры: Сойка-пересмешница. Часть I / The Hunger Games: Mockingjay - Part 1
    "Храбрость одного изменит мир"
    6.523 / 10
    -Год выпуска: 2014
    Страна: США
    Жанр: фантастика, приключения
    Продолжительность: 123 мин.
    Перевод: Профессиональный дублированный перевод и одноголосый закадровый авторский перевод
    Оригинальная аудиодорожка: Есть
    Cубтитры: Русские форсированные, русские полные, украинские полные, английские полные и английские полные SDH
    Режиссёр: Френсис Лоуренс
    Сценарий: Сьюзен Коллинз, Питер Крэйг, Дэнни Стронг
    Продюсер: Нина Джейкобсон, Джон Килик, Сьюзен Коллинз
    Оператор: Джо Уиллемс
    Композитор: Джеймс Ньютон Ховард
    Художник: Филип Мессина, Эндрю Макс Кан, Лорен Е. Полицци
    Монтаж: Алан Эдвард Белл, Марк Ёшикава
    В ролях: Дженнифер Лоуренс, Лиам Хемсворт, Джош Хатчерсон, Джулианна Мур, Филип Сеймур Хоффман, Дональд Сазерленд, Вуди Харрельсон, Элизабет Бэнкс, Натали Дормер, Сэм Клафлин
    Роли дублировали: Наталья Грачёва, Артур Бесчастный, Евгений Вальц, Вера Воронкова, Анатолий Хропов
    Бюджет: $125 000 000
    Сборы в США: $337 135 885
    Сборы в мире: + $414 964 344 = $752 100 229
    Сборы в России: $17 253 020
    Мировая премьера: 10 ноября 2014
    Премьера (РФ): 20 ноября 2014, Вольга
    Описание: 75-ые Голодные игры изменили все. Китнисс нарушила правила, и непоколебимое до той поры деспотичное правление Капитолия пошатнулось. У людей появилась надежда, и ее символ - Сойка-пересмешница. Теперь, чтобы освободить захваченного в плен Пита и защитить своих близких, Китнисс придется сражаться в настоящих битвах и стать еще сильнее, чем на арене игр.-Качество исходника: BD-Remux 1080p (HDClub)
    Качество: BDRip
    Тип: 480p 720p 1080p
    Контейнер: m4v
    Видео: 640x356 анаморф 852х356 at 23.976 fps, MPEG-4 AVC, ~1400 kbps avg
    Видео: 1280х532 at 23.976 fps, MPEG-4 AVC, ~5000 kbps avg
    Видео: 1920х800 at 23.976 fps, MPEG-4 AVC, ~8500 kbps avg
    Аудио#1: Russian: 48 kHz, ААС, 2/0 (L,R), ~128.00 / 192.00 kbps avg |Дубляж, iTunes Russia|
    Аудио#2: Russian: 48 kHz, ААС, 2/0 (L,R), ~128.00 / 192.00 kbps avg |Одноголосый закадровый, А. Матвеев|
    Аудио#3: Ukrainian: 48 kHz, ААС, 2/0 (L,R), ~128.00 / 192.00 kbps avg |Дубляж, iTunes Russia|
    Аудио#4: English: 48 kHz, ААС, 2/0 (L,R), ~128.00 / 192.00 kbps avg
    Аудио#5: English: 48 kHz, ААС, 2/0 (L,R), ~128.00 / 192.00 kbps avg |Комментарии|
    Аудио#6: Russian: 48 kHz, AC3, 3/2 (L,C,R,l,r) + LFE ch, ~384.00 kbps avg |Дубляж, iTunes Russia|
    Аудио#7: Russian: 48 kHz, AC3, 3/2 (L,C,R,l,r) + LFE ch, ~640.00 kbps avg |Одноголосый закадровый, А. Матвеев|
    Аудио#8: English: 48 kHz, AC3, 3/2 (L,C,R,l,r) + LFE ch, ~640.00 kbps avg
    Субтитры №1: Russian: |Форсированные|
    Субтитры №2: Russian: |Полные|
    Субтитры №3: Ukrainian: |Полные|
    Субтитры №4: English: |Полные|
    Субтитры №5: English: |Полные, SDH|-

    Знаете ли Вы, что...

    • У Дженнифер Лоуренс были недостаточно длинные волосы, из-за этого ей пришлось носить парик.
    • Помимо парика Джулианна Мур также носила темные контактные линзы для своей роли.
    • Первый фильм серии, который был снят на «цифру».
    • Чтобы избежать утечки информации и сохранить проект в тайне, во время съемок фильм носил рабочее название Seashore ("Морской берег»).
    • Филип Сеймур Хоффман, сыгравший Плутарха Хэвенсби, трагически погиб за неделю до окончания съемок. В связи с тем, что большинство его сцен для двух заключительных фильмов было уже отснято, на эту роль не стали брать другого актера, а работу над ней закончили при помощи внесения некоторых изменений в сценарий.
    • Джулианна Мур рассказала, что согласиться на роль Альмы Койн ее убедили собственные дети, которым очень нравится оригинальный роман.
    • Джоди Фостер рассматривалась на роль Альмы Койн.
    • Натали Дормер на самом деле побрила половину головы для роли Крессиды. Изначально она собиралась побрить всю голову, но режиссер Френсис Лоуренс убедил ее не делать этого.
    • Это первый фильм серии, не выпущенный в IMAX.
    • Лиам Хемсворт заработал во время съемок травму голеностопного сустава.
    • Во время съемок сцены в канализационных трубах у Дженнифер Лоуренс был приступ удушья из-за сухого льда, используемого в качестве дыма в этой сцене.
    • Хотя персонаж Эффи Тринкет (Элизабет Бэнкс) появляется лишь эпизодически в конце романа, в фильме эта роль была расширена.

    -

    iTunes Meta Tags for country ru

    Name: Голодные игры: Сойка-пересмешница. Часть 1
    Artist: Френсис Лоуренс
    Genre: Action & Adventure
    Release Date: 2014-11-10T08:00:00Z
    Description: 75-ые Голодные игры изменили все. Китнисс нарушила правила, и непоколебимое до той поры деспотичное правление Капитолия пошатнулось. У людей появилась надежда, и ее символ - Сойка-пересмешница. Теперь, чтобы освободить захваченного в плен Пита и защитить своих близких, Китнисс придется сражаться в настоящих битвах и стать еще сильнее, чем на арене игр.
    Long Description: 75-ые Голодные игры изменили все. Китнисс нарушила правила, и непоколебимое до той поры деспотичное правление Капитолия пошатнулось. У людей появилась надежда, и ее символ - Сойка-пересмешница. Теперь, чтобы освободить захваченного в плен Пита и защитить своих близких, Китнисс придется сражаться в настоящих битвах и стать еще сильнее, чем на арене игр.
    Rating: 12+
    Studio: Color Force, Lionsgate
    Cast: Дженнифер Лоуренс, Лиам Хемсворт, Джош Хатчерсон, Джулианна Мур, Филип Сеймур Хоффман, Дональд Сазерленд, Вуди Харрельсон, Элизабет Бэнкс, Натали Дормер, Сэм Клафлин
    Director: Френсис Лоуренс
    Producers: Нина Джейкобсон, Джон Килик, Сьюзен Коллинз
    Screenwriters: Сьюзен Коллинз, Питер Крэйг, Дэнни Стронг
    Copyright: © 2014 Lions Gate Films Inc.
    contentID: 943847337
    XID: Apple:vendor_id:2014-661911
    Sort Name: Голодные игры: Сойка-пересмешница. Часть 1

    iTunes Meta Tags for country us

    Name: The Hunger Games: Mockingjay - Part 1
    Artist: Francis Lawrence
    Genre: Action & Adventure
    Release Date: 2014-11-10T08:00:00Z
    Description: 75-ые Голодные игры изменили все. Китнисс нарушила правила, и непоколебимое до той поры деспотичное правление Капитолия пошатнулось. У людей появилась надежда, и ее символ - Сойка-пересмешница. Теперь, чтобы освободить захваченного в плен Пита и защитить своих близких, Китнисс придется сражаться в настоящих битвах и стать еще сильнее, чем на арене игр.
    Long Description: 75-ые Голодные игры изменили все. Китнисс нарушила правила, и непоколебимое до той поры деспотичное правление Капитолия пошатнулось. У людей появилась надежда, и ее символ - Сойка-пересмешница. Теперь, чтобы освободить захваченного в плен Пита и защитить своих близких, Китнисс придется сражаться в настоящих битвах и стать еще сильнее, чем на арене игр.
    Rating: PG-13
    Rating Annotation: Rated PG-13 for intense sequences of violence and action, some disturbing images and thematic material.
    Studio: Lionsgate
    Cast: Дженнифер Лоуренс, Лиам Хемсворт, Джош Хатчерсон, Джулианна Мур, Филип Сеймур Хоффман, Дональд Сазерленд, Вуди Харрельсон, Элизабет Бэнкс, Натали Дормер, Сэм Клафлин
    Director: Френсис Лоуренс
    Producers: Нина Джейкобсон, Джон Килик, Сьюзен Коллинз
    Screenwriters: Сьюзен Коллинз, Питер Крэйг, Дэнни Стронг
    Copyright: © 2014 Lions Gate Films Inc. All Rights Reserved.
    contentID: 938538816
    XID: Apple:vendor_id:2014-661911
    Sort Name: Hunger Games: Mockingjay - Part 1

    MediaInfo 480p Release

    General
    Complete name : The Hunger Games_ Mockingjay - Part 1.m4v
    Format : MPEG-4
    Codec ID : M4V
    File size : 1.77 GiB
    Duration : 2h 3mn
    Overall bit rate mode : Variable
    Overall bit rate : 2 041 Kbps
    Movie name : The Hunger Games: Mockingjay - Part 1
    Performer : Francis Lawrence
    Genre : Action & Adventure
    ContentType : Short Film
    Description : 75-ые Голодные игры изменили все. Китнисс нарушила правила, и непоколебимое до той поры деспотичное правление Капитолия пошатнулось. У людей появилась надежда, и ее символ - Сойка-пересмешница. Теперь, чтобы освободить захваченного в плен Пита и защитить своих близких, Китнисс придется сражаться в настоящих битвах и стать еще сильнее, чем на арене игр.
    Recorded date : UTC 2014-11-10 08:00:00
    Encoded date : UTC 2015-03-23 12:36:45
    Tagged date : UTC 2015-03-23 13:50:38
    Copyright : © 2014 Lions Gate Films Inc. All Rights Reserved.
    Cover : Yes
    Rating : None
    Title/Sort : Hunger Games: Mockingjay. Part 1
    LongDescription : 75-ые Голодные игры изменили все. Китнисс нарушила правила, и непоколебимое до той поры деспотичное правление Капитолия пошатнулось. У людей появилась надежда, и ее символ - Сойка-пересмешница. Теперь, чтобы освободить захваченного в плен Пита и защитить своих близких, Китнисс придется сражаться в настоящих битвах и стать еще сильнее, чем на арене игр.
    AppleStoreCatalogID : 938538816
    Vendor : Apple:vendor_id:2014-661911
    ContentRating : mpaa|PG-13|300|Rated PG-13 for intense sequences of violence and action, some disturbing images and thematic material.
    iTunMOVI : <?xml version="1.0" encoding="UTF-8"?> / <!DOCTYPE plist PUBLIC "-//Apple//DTD PLIST 1.0//EN" "http://anonym.to/?http://www.apple.com/DTDs/PropertyList-1.0.dtd"> / <plist version="1.0"> / <dict> /  <key>cast</key> /  <array> /   <dict> /    <key>name</key> /    <string>Дженнифер Лоуренс</string> /   </dict> /   <dict> /    <key>name</key> /    <string>Лиам Хемсворт</string> /   </dict> /   <dict> /    <key>name</key> /    <string>Джош Хатчерсон</string> /   </dict> /   <dict> /    <key>name</key> /    <string>Джулианна Мур</string> /   </dict> /   <dict> /    <key>name</key> /    <string>Филип Сеймур Хоффман</string> /   </dict> /   <dict> /    <key>name</key> /    <string>Дональд Сазерленд</string> /   </dict> /   <dict> /    <key>name</key> /    <string>Вуди Харрельсон</string> /   </dict> /   <dict> /    <key>name</key> /    <string>Элизабет Бэнкс</string> /   </dict> /   <dict> /    <key>name</key> /    <string>Натали Дормер</string> /   </dict> /   <dict> /    <key>name</key> /    <string>Сэм Клафлин</string> /   </dict> /  </array> /  <key>directors</key> /  <array> /   <dict> /    <key>name</key> /    <string>Френсис Лоуренс</string> /   </dict> /  </array> /  <key>producers</key> /  <array> /   <dict> /    <key>name</key> /    <string>Нина Джейкобсон</string> /   </dict> /   <dict> /    <key>name</key> /    <string>Джон Килик</string> /   </dict> /   <dict> /    <key>name</key> /    <string>Сьюзен Коллинз</string> /   </dict> /  </array> /  <key>screenwriters</key> /  <array> /   <dict> /    <key>name</key> /    <string>Сьюзен Коллинз</string> /   </dict> /   <dict> /    <key>name</key> /    <string>Питер Крэйг</string> /   </dict> /   <dict> /    <key>name</key> /    <string>Дэнни Стронг</string> /   </dict> /  </array> /  <key>studio</key> /  <string>Lionsgate</string> / </dict> / </plist>
    Video #1
    ID : 1
    Format : AVC
    Format/Info : Advanced Video Codec
    Format profile : Baseline@L3.0
    Format settings, CABAC : No
    Format settings, ReFrames : 2 frames
    Codec ID : avc1
    Codec ID/Info : Advanced Video Coding
    Duration : 2h 3mn
    Bit rate : 1 400 Kbps
    Width : 640 pixels
    Height : 356 pixels
    Display aspect ratio : 2.40:1
    Frame rate mode : Variable
    Frame rate : 23.976 fps
    Minimum frame rate : 23.974 fps
    Maximum frame rate : 23.981 fps
    Color space : YUV
    Chroma subsampling : 4:2:0
    Bit depth : 8 bits
    Scan type : Progressive
    Bits/(Pixel*Frame) : 0.256
    Stream size : 1.21 GiB (68%)
    Writing library : x264 core 130 r2273 b3065e6
    Encoding settings : cabac=0 / ref=2 / deblock=1:0:0 / analyse=0x1:0x111 / me=umh / subme=6 / psy=1 / psy_rd=1.00:0.00 / mixed_ref=1 / me_range=16 / chroma_me=1 / trellis=0 / 8x8dct=0 / cqm=0 / deadzone=21,11 / fast_pskip=1 / chroma_qp_offset=-2 / threads=18 / lookahead_threads=2 / sliced_threads=0 / nr=0 / decimate=1 / interlaced=0 / bluray_compat=0 / constrained_intra=0 / bframes=0 / weightp=0 / keyint=240 / keyint_min=24 / scenecut=40 / intra_refresh=0 / rc_lookahead=40 / rc=2pass / mbtree=1 / bitrate=1400 / ratetol=1.0 / qcomp=0.60 / qpmin=0 / qpmax=69 / qpstep=4 / cplxblur=20.0 / qblur=0.5 / vbv_maxrate=5000 / vbv_bufsize=5000 / nal_hrd=none / ip_ratio=1.40 / aq=1:1.00
    Language : English
    Encoded date : UTC 2015-03-23 12:36:45
    Tagged date : UTC 2015-03-23 12:39:05
    Color primaries : BT.709
    Transfer characteristics : BT.709
    Matrix coefficients : BT.709
    Video #2
    ID : 12
    Format : JPEG
    Codec ID : jpeg
    Duration : 2h 3mn
    Bit rate mode : Variable
    Bit rate : 472 bps
    Width : 640 pixels
    Height : 267 pixels
    Display aspect ratio : 2.40:1
    Frame rate mode : Variable
    Frame rate : 0.002 fps
    Minimum frame rate : 0.001 fps
    Maximum frame rate : 0.007 fps
    Color space : YUV
    Chroma subsampling : 4:2:0
    Bit depth : 8 bits
    Compression mode : Lossy
    Bits/(Pixel*Frame) : 1.381
    Stream size : 461 KiB (0%)
    Language : English
    Encoded date : UTC 2015-03-23 12:40:36
    Tagged date : UTC 2015-03-23 12:40:37
    Audio #1
    ID : 2
    Format : AAC
    Format/Info : Advanced Audio Codec
    Format profile : LC
    Codec ID : 40
    Duration : 2h 3mn
    Bit rate mode : Variable
    Bit rate : 132 Kbps
    Maximum bit rate : 198 Kbps
    Channel(s) : 2 channels
    Channel positions : Front: L R
    Sampling rate : 48.0 KHz
    Compression mode : Lossy
    Stream size : 117 MiB (6%)
    Language : Russian
    Encoded date : UTC 2015-03-23 12:36:45
    Tagged date : UTC 2015-03-23 12:40:33
    Audio #2
    ID : 3
    Format : AAC
    Format/Info : Advanced Audio Codec
    Format profile : LC
    Codec ID : 40
    Duration : 2h 3mn
    Bit rate mode : Variable
    Bit rate : 132 Kbps
    Maximum bit rate : 210 Kbps
    Channel(s) : 2 channels
    Channel positions : Front: L R
    Sampling rate : 48.0 KHz
    Compression mode : Lossy
    Stream size : 116 MiB (6%)
    Language : Russian
    Encoded date : UTC 2015-03-23 12:36:45
    Tagged date : UTC 2015-03-23 12:40:32
    Audio #3
    ID : 4
    Format : AAC
    Format/Info : Advanced Audio Codec
    Format profile : LC
    Codec ID : 40
    Duration : 2h 3mn
    Bit rate mode : Variable
    Bit rate : 110 Kbps
    Maximum bit rate : 208 Kbps
    Channel(s) : 2 channels
    Channel positions : Front: L R
    Sampling rate : 48.0 KHz
    Compression mode : Lossy
    Stream size : 97.4 MiB (5%)
    Language : Ukrainian
    Encoded date : UTC 2015-03-23 12:36:45
    Tagged date : UTC 2015-03-23 12:40:21
    Audio #4
    ID : 5
    Format : AAC
    Format/Info : Advanced Audio Codec
    Format profile : LC
    Codec ID : 40
    Duration : 2h 3mn
    Bit rate mode : Variable
    Bit rate : 132 Kbps
    Maximum bit rate : 201 Kbps
    Channel(s) : 2 channels
    Channel positions : Front: L R
    Sampling rate : 48.0 KHz
    Compression mode : Lossy
    Stream size : 117 MiB (6%)
    Language : English
    Encoded date : UTC 2015-03-23 12:36:45
    Tagged date : UTC 2015-03-23 12:40:33
    Audio #5
    ID : 6
    Format : AAC
    Format/Info : Advanced Audio Codec
    Format profile : LC
    Codec ID : 40
    Duration : 2h 3mn
    Bit rate mode : Variable
    Bit rate : 132 Kbps
    Maximum bit rate : 233 Kbps
    Channel(s) : 2 channels
    Channel positions : Front: L R
    Sampling rate : 48.0 KHz
    Compression mode : Lossy
    Stream size : 116 MiB (6%)
    Language : English
    Encoded date : UTC 2015-03-23 12:36:45
    Tagged date : UTC 2015-03-23 12:40:32
    Text #1
    ID : 7
    Format : Timed Text
    Muxing mode : sbtl
    Codec ID : tx3g
    Duration : 1h 14mn
    Bit rate mode : Variable
    Bit rate : 4 bps
    Stream size : 2.26 KiB (0%)
    Language : Russian
    Encoded date : UTC 2015-03-23 12:36:45
    Tagged date : UTC 2015-03-23 12:36:45
    Text #2
    ID : 8
    Format : Timed Text
    Muxing mode : sbtl
    Codec ID : tx3g
    Duration : 1h 50mn
    Bit rate mode : Variable
    Bit rate : 99 bps
    Stream size : 80.6 KiB (0%)
    Language : Russian
    Encoded date : UTC 2015-03-23 12:36:45
    Tagged date : UTC 2015-03-23 12:36:46
    Text #3
    ID : 9
    Format : Timed Text
    Muxing mode : sbtl
    Codec ID : tx3g
    Duration : 1h 50mn
    Bit rate mode : Variable
    Bit rate : 58 bps
    Stream size : 47.2 KiB (0%)
    Language : English
    Encoded date : UTC 2015-03-23 12:36:45
    Tagged date : UTC 2015-03-23 12:36:46
    Text #4
    ID : 10
    Format : Timed Text
    Muxing mode : sbtl
    Codec ID : tx3g
    Duration : 1h 50mn
    Bit rate mode : Variable
    Bit rate : 64 bps
    Stream size : 52.2 KiB (0%)
    Language : English
    Encoded date : UTC 2015-03-23 12:36:45
    Tagged date : UTC 2015-03-23 12:36:46
    Menu #1
    00:00:00.000 : 1
    00:09:13.134 : 2
    00:15:32.139 : 3
    00:24:27.548 : 4
    00:34:47.668 : 5
    00:37:15.440 : 6
    00:43:04.289 : 7
    00:53:03.889 : 8
    00:59:51.253 : 9
    01:05:45.942 : 10
    01:09:57.234 : 11
    01:12:33.349 : 12
    01:25:09.561 : 13
    01:33:18.842 : 14
    01:43:08.180 : 15
    01:51:14.458 : 16
    Menu #2
    ID : 11
    Codec ID : text
    Duration : 2h 3mn
    Language : English
    Encoded date : UTC 2015-03-23 12:40:33
    Tagged date : UTC 2015-03-23 12:40:33
    00:00:00.000 : 1
    00:09:13.134 : 2
    00:15:32.139 : 3
    00:24:27.548 : 4
    00:34:47.668 : 5
    00:37:15.440 : 6
    00:43:04.289 : 7
    00:53:03.889 : 8
    00:59:51.253 : 9
    01:05:45.942 : 10
    01:09:57.234 : 11
    01:12:33.349 : 12
    01:25:09.561 : 13
    01:33:18.842 : 14
    01:43:08.180 : 15
    01:51:14.458 : 16
    Bit rate mode : VBR

    MediaInfo 720p Release

    General
    Complete name : The Hunger Games_ Mockingjay - Part 1 (HD).m4v
    Format : MPEG-4
    Codec ID : M4V
    File size : 6.57 GiB
    Duration : 2h 3mn
    Overall bit rate mode : Variable
    Overall bit rate : 7 591 Kbps
    Movie name : The Hunger Games: Mockingjay - Part 1
    Performer : Francis Lawrence
    Genre : Action & Adventure
    ContentType : Short Film
    Description : 75-ые Голодные игры изменили все. Китнисс нарушила правила, и непоколебимое до той поры деспотичное правление Капитолия пошатнулось. У людей появилась надежда, и ее символ - Сойка-пересмешница. Теперь, чтобы освободить захваченного в плен Пита и защитить своих близких, Китнисс придется сражаться в настоящих битвах и стать еще сильнее, чем на арене игр.
    Recorded date : UTC 2014-11-10 08:00:00
    Encoded date : UTC 2015-03-23 11:41:29
    Tagged date : UTC 2015-03-23 12:20:36
    Copyright : © 2014 Lions Gate Films Inc. All Rights Reserved.
    Cover : Yes
    Rating : None
    Title/Sort : Hunger Games: Mockingjay. Part 1
    LongDescription : 75-ые Голодные игры изменили все. Китнисс нарушила правила, и непоколебимое до той поры деспотичное правление Капитолия пошатнулось. У людей появилась надежда, и ее символ - Сойка-пересмешница. Теперь, чтобы освободить захваченного в плен Пита и защитить своих близких, Китнисс придется сражаться в настоящих битвах и стать еще сильнее, чем на арене игр.
    HDVideo : Yes
    AppleStoreCatalogID : 938538816
    Vendor : Apple:vendor_id:2014-661911
    ContentRating : mpaa|PG-13|300|Rated PG-13 for intense sequences of violence and action, some disturbing images and thematic material.
    iTunMOVI : <?xml version="1.0" encoding="UTF-8"?> / <!DOCTYPE plist PUBLIC "-//Apple//DTD PLIST 1.0//EN" "http://anonym.to/?http://www.apple.com/DTDs/PropertyList-1.0.dtd"> / <plist version="1.0"> / <dict> /  <key>cast</key> /  <array> /   <dict> /    <key>name</key> /    <string>Дженнифер Лоуренс</string> /   </dict> /   <dict> /    <key>name</key> /    <string>Лиам Хемсворт</string> /   </dict> /   <dict> /    <key>name</key> /    <string>Джош Хатчерсон</string> /   </dict> /   <dict> /    <key>name</key> /    <string>Джулианна Мур</string> /   </dict> /   <dict> /    <key>name</key> /    <string>Филип Сеймур Хоффман</string> /   </dict> /   <dict> /    <key>name</key> /    <string>Дональд Сазерленд</string> /   </dict> /   <dict> /    <key>name</key> /    <string>Вуди Харрельсон</string> /   </dict> /   <dict> /    <key>name</key> /    <string>Элизабет Бэнкс</string> /   </dict> /   <dict> /    <key>name</key> /    <string>Натали Дормер</string> /   </dict> /   <dict> /    <key>name</key> /    <string>Сэм Клафлин</string> /   </dict> /  </array> /  <key>directors</key> /  <array> /   <dict> /    <key>name</key> /    <string>Френсис Лоуренс</string> /   </dict> /  </array> /  <key>producers</key> /  <array> /   <dict> /    <key>name</key> /    <string>Нина Джейкобсон</string> /   </dict> /   <dict> /    <key>name</key> /    <string>Джон Килик</string> /   </dict> /   <dict> /    <key>name</key> /    <string>Сьюзен Коллинз</string> /   </dict> /  </array> /  <key>screenwriters</key> /  <array> /   <dict> /    <key>name</key> /    <string>Сьюзен Коллинз</string> /   </dict> /   <dict> /    <key>name</key> /    <string>Питер Крэйг</string> /   </dict> /   <dict> /    <key>name</key> /    <string>Дэнни Стронг</string> /   </dict> /  </array> /  <key>studio</key> /  <string>Lionsgate</string> / </dict> / </plist>
    Video #1
    ID : 1
    Format : AVC
    Format/Info : Advanced Video Codec
    Format profile : High@L3.1
    Format settings, CABAC : No
    Format settings, ReFrames : 3 frames
    Codec ID : avc1
    Codec ID/Info : Advanced Video Coding
    Duration : 2h 3mn
    Source duration : 2h 3mn
    Bit rate : 5 000 Kbps
    Width : 1 280 pixels
    Height : 532 pixels
    Display aspect ratio : 2.40:1
    Frame rate mode : Variable
    Frame rate : 23.976 fps
    Minimum frame rate : 23.974 fps
    Maximum frame rate : 23.981 fps
    Color space : YUV
    Chroma subsampling : 4:2:0
    Bit depth : 8 bits
    Scan type : Progressive
    Bits/(Pixel*Frame) : 0.306
    Stream size : 4.30 GiB (66%)
    Source stream size : 4.30 GiB (66%)
    Writing library : x264 core 130 r2273 b3065e6
    Encoding settings : cabac=0 / ref=3 / deblock=1:-3:-2 / analyse=0x3:0x113 / me=umh / subme=9 / psy=1 / psy_rd=1.00:0.25 / mixed_ref=1 / me_range=32 / chroma_me=1 / trellis=0 / 8x8dct=1 / cqm=0 / deadzone=21,11 / fast_pskip=0 / chroma_qp_offset=-2 / threads=18 / lookahead_threads=1 / sliced_threads=0 / nr=0 / decimate=0 / interlaced=0 / bluray_compat=0 / constrained_intra=0 / bframes=3 / b_pyramid=0 / b_adapt=2 / b_bias=0 / direct=1 / weightb=0 / open_gop=0 / weightp=0 / keyint=240 / keyint_min=24 / scenecut=40 / intra_refresh=0 / rc_lookahead=40 / rc=2pass / mbtree=1 / bitrate=5000 / ratetol=1.0 / qcomp=0.60 / qpmin=0 / qpmax=69 / qpstep=4 / cplxblur=20.0 / qblur=0.5 / vbv_maxrate=9500 / vbv_bufsize=9500 / nal_hrd=none / ip_ratio=1.40 / aq=1:0.80
    Language : English
    Encoded date : UTC 2015-03-23 11:41:29
    Tagged date : UTC 2015-03-23 11:47:36
    Color primaries : BT.709
    Transfer characteristics : BT.709
    Matrix coefficients : BT.709
    Video #2
    ID : 15
    Format : JPEG
    Codec ID : jpeg
    Duration : 2h 3mn
    Bit rate mode : Variable
    Bit rate : 500 bps
    Width : 640 pixels
    Height : 266 pixels
    Display aspect ratio : 2.40:1
    Frame rate mode : Variable
    Frame rate : 0.002 fps
    Minimum frame rate : 0.001 fps
    Maximum frame rate : 0.007 fps
    Color space : YUV
    Chroma subsampling : 4:2:0
    Bit depth : 8 bits
    Compression mode : Lossy
    Bits/(Pixel*Frame) : 1.469
    Stream size : 488 KiB (0%)
    Language : English
    Encoded date : UTC 2015-03-23 12:01:04
    Tagged date : UTC 2015-03-23 12:01:04
    Audio #1
    ID : 2
    Format : AAC
    Format/Info : Advanced Audio Codec
    Format profile : LC
    Codec ID : 40
    Duration : 2h 3mn
    Bit rate mode : Variable
    Bit rate : 198 Kbps
    Maximum bit rate : 297 Kbps
    Channel(s) : 2 channels
    Channel positions : Front: L R
    Sampling rate : 48.0 KHz
    Compression mode : Lossy
    Stream size : 174 MiB (3%)
    Language : Russian
    Encoded date : UTC 2015-03-23 11:41:29
    Tagged date : UTC 2015-03-23 12:00:56
    Audio #2
    ID : 3
    Format : AAC
    Format/Info : Advanced Audio Codec
    Format profile : LC
    Codec ID : 40
    Duration : 2h 3mn
    Bit rate mode : Variable
    Bit rate : 198 Kbps
    Maximum bit rate : 331 Kbps
    Channel(s) : 2 channels
    Channel positions : Front: L R
    Sampling rate : 48.0 KHz
    Compression mode : Lossy
    Stream size : 175 MiB (3%)
    Language : Russian
    Encoded date : UTC 2015-03-23 11:41:29
    Tagged date : UTC 2015-03-23 12:00:57
    Audio #3
    ID : 4
    Format : AAC
    Format/Info : Advanced Audio Codec
    Format profile : LC
    Codec ID : 40
    Duration : 2h 3mn
    Bit rate mode : Variable
    Bit rate : 157 Kbps
    Maximum bit rate : 278 Kbps
    Channel(s) : 2 channels
    Channel positions : Front: L R
    Sampling rate : 48.0 KHz
    Compression mode : Lossy
    Stream size : 138 MiB (2%)
    Language : Ukrainian
    Encoded date : UTC 2015-03-23 11:41:29
    Tagged date : UTC 2015-03-23 12:00:57
    Audio #4
    ID : 5
    Format : AAC
    Format/Info : Advanced Audio Codec
    Format profile : LC
    Codec ID : 40
    Duration : 2h 3mn
    Bit rate mode : Variable
    Bit rate : 199 Kbps
    Maximum bit rate : 299 Kbps
    Channel(s) : 2 channels
    Channel positions : Front: L R
    Sampling rate : 48.0 KHz
    Compression mode : Lossy
    Stream size : 175 MiB (3%)
    Language : English
    Encoded date : UTC 2015-03-23 11:41:29
    Tagged date : UTC 2015-03-23 12:00:57
    Audio #5
    ID : 6
    Format : AAC
    Format/Info : Advanced Audio Codec
    Format profile : LC
    Codec ID : 40
    Duration : 2h 3mn
    Bit rate mode : Variable
    Bit rate : 196 Kbps
    Maximum bit rate : 324 Kbps
    Channel(s) : 2 channels
    Channel positions : Front: L R
    Sampling rate : 48.0 KHz
    Compression mode : Lossy
    Stream size : 174 MiB (3%)
    Language : English
    Encoded date : UTC 2015-03-23 11:41:29
    Tagged date : UTC 2015-03-23 12:00:57
    Audio #6
    ID : 7
    Format : AC-3
    Format/Info : Audio Coding 3
    Mode extension : CM (complete main)
    Format settings, Endianness : Big
    Codec ID : ac-3
    Duration : 2h 3mn
    Bit rate mode : Constant
    Bit rate : 384 Kbps
    Channel(s) : 6 channels
    Channel positions : Front: L C R, Side: L R, LFE
    Sampling rate : 48.0 KHz
    Bit depth : 16 bits
    Compression mode : Lossy
    Stream size : 339 MiB (5%)
    Language : Russian
    Encoded date : UTC 2015-03-23 11:41:29
    Tagged date : UTC 2015-03-23 12:00:56
    Audio #7
    ID : 8
    Format : AC-3
    Format/Info : Audio Coding 3
    Mode extension : CM (complete main)
    Format settings, Endianness : Big
    Codec ID : ac-3
    Duration : 2h 3mn
    Bit rate mode : Constant
    Bit rate : 640 Kbps
    Channel(s) : 6 channels
    Channel positions : Front: L C R, Side: L R, LFE
    Sampling rate : 48.0 KHz
    Bit depth : 16 bits
    Compression mode : Lossy
    Stream size : 565 MiB (8%)
    Language : Russian
    Encoded date : UTC 2015-03-23 11:41:29
    Tagged date : UTC 2015-03-23 12:00:57
    Audio #8
    ID : 9
    Format : AC-3
    Format/Info : Audio Coding 3
    Mode extension : CM (complete main)
    Format settings, Endianness : Big
    Codec ID : ac-3
    Duration : 2h 3mn
    Bit rate mode : Constant
    Bit rate : 640 Kbps
    Channel(s) : 6 channels
    Channel positions : Front: L C R, Side: L R, LFE
    Sampling rate : 48.0 KHz
    Bit depth : 16 bits
    Compression mode : Lossy
    Stream size : 565 MiB (8%)
    Language : English
    Encoded date : UTC 2015-03-23 11:41:29
    Tagged date : UTC 2015-03-23 12:00:57
    Text #1
    ID : 10
    Format : Timed Text
    Muxing mode : sbtl
    Codec ID : tx3g
    Duration : 1h 14mn
    Bit rate mode : Variable
    Bit rate : 4 bps
    Stream size : 2.26 KiB (0%)
    Language : Russian
    Encoded date : UTC 2015-03-23 11:41:29
    Tagged date : UTC 2015-03-23 11:41:29
    Text #2
    ID : 11
    Format : Timed Text
    Muxing mode : sbtl
    Codec ID : tx3g
    Duration : 1h 50mn
    Bit rate mode : Variable
    Bit rate : 99 bps
    Stream size : 80.6 KiB (0%)
    Language : Russian
    Encoded date : UTC 2015-03-23 11:41:29
    Tagged date : UTC 2015-03-23 11:41:29
    Text #3
    ID : 12
    Format : Timed Text
    Muxing mode : sbtl
    Codec ID : tx3g
    Duration : 1h 50mn
    Bit rate mode : Variable
    Bit rate : 58 bps
    Stream size : 47.2 KiB (0%)
    Language : English
    Encoded date : UTC 2015-03-23 11:41:29
    Tagged date : UTC 2015-03-23 11:41:29
    Text #4
    ID : 13
    Format : Timed Text
    Muxing mode : sbtl
    Codec ID : tx3g
    Duration : 1h 50mn
    Bit rate mode : Variable
    Bit rate : 64 bps
    Stream size : 52.2 KiB (0%)
    Language : English
    Encoded date : UTC 2015-03-23 11:41:29
    Tagged date : UTC 2015-03-23 11:41:30
    Menu #1
    00:00:00.000 : 1
    00:09:13.134 : 2
    00:15:32.139 : 3
    00:24:27.548 : 4
    00:34:47.668 : 5
    00:37:15.440 : 6
    00:43:04.289 : 7
    00:53:03.889 : 8
    00:59:51.253 : 9
    01:05:45.942 : 10
    01:09:57.234 : 11
    01:12:33.349 : 12
    01:25:09.561 : 13
    01:33:18.842 : 14
    01:43:08.180 : 15
    01:51:14.458 : 16
    Menu #2
    ID : 14
    Codec ID : text
    Duration : 2h 3mn
    Language : English
    Encoded date : UTC 2015-03-23 12:00:57
    Tagged date : UTC 2015-03-23 12:00:57
    00:00:00.000 : 1
    00:09:13.134 : 2
    00:15:32.139 : 3
    00:24:27.548 : 4
    00:34:47.668 : 5
    00:37:15.440 : 6
    00:43:04.289 : 7
    00:53:03.889 : 8
    00:59:51.253 : 9
    01:05:45.942 : 10
    01:09:57.234 : 11
    01:12:33.349 : 12
    01:25:09.561 : 13
    01:33:18.842 : 14
    01:43:08.180 : 15
    01:51:14.458 : 16
    Bit rate mode : VBR

    MediaInfo 1080p Release

    General
    Complete name : The Hunger Games_ Mockingjay - Part 1 (1080p HD).m4v
    Format : MPEG-4
    Codec ID : M4V
    File size : 9.55 GiB
    Duration : 2h 3mn
    Overall bit rate mode : Variable
    Overall bit rate : 11.0 Mbps
    Movie name : The Hunger Games: Mockingjay - Part 1
    Performer : Francis Lawrence
    Genre : Action & Adventure
    ContentType : Short Film
    Description : 75-ые Голодные игры изменили все. Китнисс нарушила правила, и непоколебимое до той поры деспотичное правление Капитолия пошатнулось. У людей появилась надежда, и ее символ - Сойка-пересмешница. Теперь, чтобы освободить захваченного в плен Пита и защитить своих близких, Китнисс придется сражаться в настоящих битвах и стать еще сильнее, чем на арене игр.
    Recorded date : UTC 2014-11-10 08:00:00
    Encoded date : UTC 2015-03-23 09:21:49
    Tagged date : UTC 2015-03-23 09:46:58
    Copyright : © 2014 Lions Gate Films Inc. All Rights Reserved.
    Cover : Yes
    Rating : None
    Title/Sort : Hunger Games: Mockingjay. Part 1
    LongDescription : 75-ые Голодные игры изменили все. Китнисс нарушила правила, и непоколебимое до той поры деспотичное правление Капитолия пошатнулось. У людей появилась надежда, и ее символ - Сойка-пересмешница. Теперь, чтобы освободить захваченного в плен Пита и защитить своих близких, Китнисс придется сражаться в настоящих битвах и стать еще сильнее, чем на арене игр.
    AppleStoreCatalogID : 938538816
    Vendor : Apple:vendor_id:2014-661911
    ContentRating : mpaa|PG-13|300|Rated PG-13 for intense sequences of violence and action, some disturbing images and thematic material.
    iTunMOVI : <?xml version="1.0" encoding="UTF-8"?> / <!DOCTYPE plist PUBLIC "-//Apple//DTD PLIST 1.0//EN" "http://anonym.to/?http://www.apple.com/DTDs/PropertyList-1.0.dtd"> / <plist version="1.0"> / <dict> /  <key>cast</key> /  <array> /   <dict> /    <key>name</key> /    <string>Дженнифер Лоуренс</string> /   </dict> /   <dict> /    <key>name</key> /    <string>Лиам Хемсворт</string> /   </dict> /   <dict> /    <key>name</key> /    <string>Джош Хатчерсон</string> /   </dict> /   <dict> /    <key>name</key> /    <string>Джулианна Мур</string> /   </dict> /   <dict> /    <key>name</key> /    <string>Филип Сеймур Хоффман</string> /   </dict> /   <dict> /    <key>name</key> /    <string>Дональд Сазерленд</string> /   </dict> /   <dict> /    <key>name</key> /    <string>Вуди Харрельсон</string> /   </dict> /   <dict> /    <key>name</key> /    <string>Элизабет Бэнкс</string> /   </dict> /   <dict> /    <key>name</key> /    <string>Натали Дормер</string> /   </dict> /   <dict> /    <key>name</key> /    <string>Сэм Клафлин</string> /   </dict> /  </array> /  <key>directors</key> /  <array> /   <dict> /    <key>name</key> /    <string>Френсис Лоуренс</string> /   </dict> /  </array> /  <key>producers</key> /  <array> /   <dict> /    <key>name</key> /    <string>Нина Джейкобсон</string> /   </dict> /   <dict> /    <key>name</key> /    <string>Джон Килик</string> /   </dict> /   <dict> /    <key>name</key> /    <string>Сьюзен Коллинз</string> /   </dict> /  </array> /  <key>screenwriters</key> /  <array> /   <dict> /    <key>name</key> /    <string>Сьюзен Коллинз</string> /   </dict> /   <dict> /    <key>name</key> /    <string>Питер Крэйг</string> /   </dict> /   <dict> /    <key>name</key> /    <string>Дэнни Стронг</string> /   </dict> /  </array> /  <key>studio</key> /  <string>Lionsgate</string> / </dict> / </plist>
    Video #1
    ID : 1
    Format : AVC
    Format/Info : Advanced Video Codec
    Format profile : High@L4.0
    Format settings, CABAC : Yes
    Format settings, ReFrames : 4 frames
    Codec ID : avc1
    Codec ID/Info : Advanced Video Coding
    Duration : 2h 3mn
    Source duration : 2h 3mn
    Bit rate : 8 500 Kbps
    Width : 1 920 pixels
    Height : 800 pixels
    Display aspect ratio : 2.40:1
    Frame rate mode : Variable
    Frame rate : 23.976 fps
    Minimum frame rate : 23.974 fps
    Maximum frame rate : 23.981 fps
    Color space : YUV
    Chroma subsampling : 4:2:0
    Bit depth : 8 bits
    Scan type : Progressive
    Bits/(Pixel*Frame) : 0.231
    Stream size : 7.29 GiB (76%)
    Source stream size : 7.29 GiB (76%)
    Writing library : x264 core 130 r2273 b3065e6
    Encoding settings : cabac=1 / ref=4 / deblock=1:-3:-2 / analyse=0x3:0x133 / me=umh / subme=10 / psy=1 / psy_rd=1.00:0.25 / mixed_ref=1 / me_range=32 / chroma_me=1 / trellis=2 / 8x8dct=1 / cqm=0 / deadzone=21,11 / fast_pskip=0 / chroma_qp_offset=-4 / threads=18 / lookahead_threads=4 / sliced_threads=0 / nr=0 / decimate=0 / interlaced=0 / bluray_compat=0 / constrained_intra=0 / bframes=16 / b_pyramid=2 / b_adapt=2 / b_bias=0 / direct=3 / weightb=1 / open_gop=0 / weightp=2 / keyint=240 / keyint_min=24 / scenecut=40 / intra_refresh=0 / rc_lookahead=60 / rc=2pass / mbtree=1 / bitrate=8500 / ratetol=1.0 / qcomp=0.60 / qpmin=0 / qpmax=69 / qpstep=4 / cplxblur=20.0 / qblur=0.5 / vbv_maxrate=25000 / vbv_bufsize=25000 / nal_hrd=none / ip_ratio=1.40 / aq=1:0.80
    Language : English
    Encoded date : UTC 2015-03-23 09:21:50
    Tagged date : UTC 2015-03-23 09:33:11
    Color primaries : BT.709
    Transfer characteristics : BT.709
    Matrix coefficients : BT.709
    Video #2
    ID : 15
    Format : JPEG
    Codec ID : jpeg
    Duration : 2h 3mn
    Bit rate mode : Variable
    Bit rate : 492 bps
    Width : 640 pixels
    Height : 266 pixels
    Display aspect ratio : 2.40:1
    Frame rate mode : Variable
    Frame rate : 0.002 fps
    Minimum frame rate : 0.001 fps
    Maximum frame rate : 0.007 fps
    Color space : YUV
    Chroma subsampling : 4:2:0
    Bit depth : 8 bits
    Compression mode : Lossy
    Bits/(Pixel*Frame) : 1.445
    Stream size : 480 KiB (0%)
    Language : English
    Encoded date : UTC 2015-03-23 09:45:21
    Tagged date : UTC 2015-03-23 09:45:21
    Audio #1
    ID : 2
    Format : AAC
    Format/Info : Advanced Audio Codec
    Format profile : LC
    Codec ID : 40
    Duration : 2h 3mn
    Bit rate mode : Variable
    Bit rate : 198 Kbps
    Maximum bit rate : 297 Kbps
    Channel(s) : 2 channels
    Channel positions : Front: L R
    Sampling rate : 48.0 KHz
    Compression mode : Lossy
    Stream size : 174 MiB (2%)
    Language : Russian
    Encoded date : UTC 2015-03-23 09:21:50
    Tagged date : UTC 2015-03-23 09:43:56
    Audio #2
    ID : 3
    Format : AAC
    Format/Info : Advanced Audio Codec
    Format profile : LC
    Codec ID : 40
    Duration : 2h 3mn
    Bit rate mode : Variable
    Bit rate : 198 Kbps
    Maximum bit rate : 331 Kbps
    Channel(s) : 2 channels
    Channel positions : Front: L R
    Sampling rate : 48.0 KHz
    Compression mode : Lossy
    Stream size : 175 MiB (2%)
    Language : Russian
    Encoded date : UTC 2015-03-23 09:21:50
    Tagged date : UTC 2015-03-23 09:43:56
    Audio #3
    ID : 4
    Format : AAC
    Format/Info : Advanced Audio Codec
    Format profile : LC
    Codec ID : 40
    Duration : 2h 3mn
    Bit rate mode : Variable
    Bit rate : 157 Kbps
    Maximum bit rate : 278 Kbps
    Channel(s) : 2 channels
    Channel positions : Front: L R
    Sampling rate : 48.0 KHz
    Compression mode : Lossy
    Stream size : 138 MiB (1%)
    Language : Ukrainian
    Encoded date : UTC 2015-03-23 09:21:50
    Tagged date : UTC 2015-03-23 09:43:56
    Audio #4
    ID : 5
    Format : AAC
    Format/Info : Advanced Audio Codec
    Format profile : LC
    Codec ID : 40
    Duration : 2h 3mn
    Bit rate mode : Variable
    Bit rate : 199 Kbps
    Maximum bit rate : 299 Kbps
    Channel(s) : 2 channels
    Channel positions : Front: L R
    Sampling rate : 48.0 KHz
    Compression mode : Lossy
    Stream size : 175 MiB (2%)
    Language : English
    Encoded date : UTC 2015-03-23 09:21:50
    Tagged date : UTC 2015-03-23 09:43:56
    Audio #5
    ID : 6
    Format : AAC
    Format/Info : Advanced Audio Codec
    Format profile : LC
    Codec ID : 40
    Duration : 2h 3mn
    Bit rate mode : Variable
    Bit rate : 196 Kbps
    Maximum bit rate : 324 Kbps
    Channel(s) : 2 channels
    Channel positions : Front: L R
    Sampling rate : 48.0 KHz
    Compression mode : Lossy
    Stream size : 174 MiB (2%)
    Language : English
    Encoded date : UTC 2015-03-23 09:21:50
    Tagged date : UTC 2015-03-23 09:43:56
    Audio #6
    ID : 7
    Format : AC-3
    Format/Info : Audio Coding 3
    Mode extension : CM (complete main)
    Format settings, Endianness : Big
    Codec ID : ac-3
    Duration : 2h 3mn
    Bit rate mode : Constant
    Bit rate : 384 Kbps
    Channel(s) : 6 channels
    Channel positions : Front: L C R, Side: L R, LFE
    Sampling rate : 48.0 KHz
    Bit depth : 16 bits
    Compression mode : Lossy
    Stream size : 339 MiB (3%)
    Language : Russian
    Encoded date : UTC 2015-03-23 09:21:50
    Tagged date : UTC 2015-03-23 09:43:56
    Audio #7
    ID : 8
    Format : AC-3
    Format/Info : Audio Coding 3
    Mode extension : CM (complete main)
    Format settings, Endianness : Big
    Codec ID : ac-3
    Duration : 2h 3mn
    Bit rate mode : Constant
    Bit rate : 640 Kbps
    Channel(s) : 6 channels
    Channel positions : Front: L C R, Side: L R, LFE
    Sampling rate : 48.0 KHz
    Bit depth : 16 bits
    Compression mode : Lossy
    Stream size : 565 MiB (6%)
    Language : Russian
    Encoded date : UTC 2015-03-23 09:21:50
    Tagged date : UTC 2015-03-23 09:43:56
    Audio #8
    ID : 9
    Format : AC-3
    Format/Info : Audio Coding 3
    Mode extension : CM (complete main)
    Format settings, Endianness : Big
    Codec ID : ac-3
    Duration : 2h 3mn
    Bit rate mode : Constant
    Bit rate : 640 Kbps
    Channel(s) : 6 channels
    Channel positions : Front: L C R, Side: L R, LFE
    Sampling rate : 48.0 KHz
    Bit depth : 16 bits
    Compression mode : Lossy
    Stream size : 565 MiB (6%)
    Language : English
    Encoded date : UTC 2015-03-23 09:21:50
    Tagged date : UTC 2015-03-23 09:43:56
    Text #1
    ID : 10
    Format : Timed Text
    Muxing mode : sbtl
    Codec ID : tx3g
    Duration : 1h 14mn
    Bit rate mode : Variable
    Bit rate : 4 bps
    Stream size : 2.18 KiB (0%)
    Language : Russian
    Encoded date : UTC 2015-03-23 09:21:50
    Tagged date : UTC 2015-03-23 09:39:38
    Text #2
    ID : 11
    Format : Timed Text
    Muxing mode : sbtl
    Codec ID : tx3g
    Duration : 1h 50mn
    Bit rate mode : Variable
    Bit rate : 99 bps
    Stream size : 80.6 KiB (0%)
    Language : Russian
    Encoded date : UTC 2015-03-23 09:21:50
    Tagged date : UTC 2015-03-23 09:43:03
    Text #3
    ID : 12
    Format : Timed Text
    Muxing mode : sbtl
    Codec ID : tx3g
    Duration : 1h 50mn
    Bit rate mode : Variable
    Bit rate : 58 bps
    Stream size : 47.2 KiB (0%)
    Language : English
    Encoded date : UTC 2015-03-23 09:44:52
    Tagged date : UTC 2015-03-23 09:44:52
    Text #4
    ID : 13
    Format : Timed Text
    Muxing mode : sbtl
    Codec ID : tx3g
    Duration : 1h 50mn
    Bit rate mode : Variable
    Bit rate : 64 bps
    Stream size : 52.2 KiB (0%)
    Language : English
    Encoded date : UTC 2015-03-23 09:44:52
    Tagged date : UTC 2015-03-23 09:44:52
    Menu #1
    00:00:00.000 : 1
    00:09:13.134 : 2
    00:15:32.139 : 3
    00:24:27.548 : 4
    00:34:47.668 : 5
    00:37:15.440 : 6
    00:43:04.289 : 7
    00:53:03.889 : 8
    00:59:51.253 : 9
    01:05:45.942 : 10
    01:09:57.234 : 11
    01:12:33.349 : 12
    01:25:09.561 : 13
    01:33:18.842 : 14
    01:43:08.180 : 15
    01:51:14.458 : 16
    Menu #2
    ID : 14
    Codec ID : text
    Duration : 2h 3mn
    Language : English
    Encoded date : UTC 2015-03-23 09:45:07
    Tagged date : UTC 2015-03-23 09:45:07
    00:00:00.000 : 1
    00:09:13.134 : 2
    00:15:32.139 : 3
    00:24:27.548 : 4
    00:34:47.668 : 5
    00:37:15.440 : 6
    00:43:04.289 : 7
    00:53:03.889 : 8
    00:59:51.253 : 9
    01:05:45.942 : 10
    01:09:57.234 : 11
    01:12:33.349 : 12
    01:25:09.561 : 13
    01:33:18.842 : 14
    01:43:08.180 : 15
    01:51:14.458 : 16
    Bit rate mode : VBR

    x264 лог 480p Release

    HandBrakeCLI -i /THE_HUNGER_GAMES_MOCKINGJAY_PART_1_2014_REMUX_HDCLUB/BDMV/STREAM/00000.m2ts -t 1 -o The.Hunger.Games.Mockingjay.Pert.1.480p.eng.m4v -f mp4 -I -O -w 640 -l 356 --crop 140:140:0:0 --custom-anamorphic --modulus 4 --pixel-aspect 852:640 -e x264 -b 1400 -2 -a none -x cabac=0:ref=2:me=umh:bframes=0:weightp=0:subq=6:8x8dct=0:trellis=0:vbv-maxrate=5000:vbv-bufsize=5000 --verbose=1
    x264 [info]: frame I:3018  Avg QP:12.02  size: 20845  PSNR Mean Y:52.37 U:54.70 V:55.13 Avg:52.97 Global:51.75
    x264 [info]: frame P:174432 Avg QP:14.81  size:  7059  PSNR Mean Y:48.72 U:51.59 V:52.01 Avg:49.46 Global:48.29
    x264 [info]: mb I  I16..4: 35.8%  0.0% 64.2%
    x264 [info]: mb P  I16..4:  1.2%  0.0%  2.6%  P16..4: 43.2% 25.1%  9.9%  0.0%  0.0%    skip:17.9%
    x264 [info]: coded y,uvDC,uvAC intra: 60.7% 74.0% 59.6% inter: 25.8% 16.3% 5.2%
    x264 [info]: i16 v,h,dc,p: 59% 15%  9% 17%
    x264 [info]: i4 v,h,dc,ddl,ddr,vr,hd,vl,hu: 42% 13% 15%  5%  6%  6%  4%  6%  3%
    x264 [info]: i8c dc,h,v,p: 56% 15% 24%  6%
    x264 [info]: ref P L0: 69.3% 30.7%
    x264 [info]: SSIM Mean Y:0.9918246 (20.875db)
    x264 [info]: PSNR Mean Y:48.781 U:51.645 V:52.067 Avg:49.520 Global:48.330 kb/s:1398.95

    x264 лог 720p Release

    HandBrakeCLI -i /THE_HUNGER_GAMES_MOCKINGJAY_PART_1_2014_REMUX_HDCLUB/BDMV/STREAM/00000.m2ts -t 1 -o The.Hunger.Games.Mockingjay.Pert.1.720p.eng.m4v -f mp4 -4 -O -w 1280 -l 532 --crop 140:140:0:0 --modulus 4 -e x264 -b 5000 -2 -a none -x cabac=0:ref=3:me=umh:b-pyramid=none:b-adapt=2:weightb=0:trellis=0:weightp=0:vbv-maxrate=9500:vbv-bufsize=9500:subq=9:merange=32:deblock=-3,-2:qcomp=0.60:qpmin=0:qpmax=69:fast_pskip=0:aq-strength=0.8:no-dct-decimate=1:psy-rd=1.00,0.25 --verbose=1
    x264 [info]: frame I:1425  Avg QP:10.10  size:122756  PSNR Mean Y:52.65 U:55.13 V:55.33 Avg:53.32 Global:52.49
    x264 [info]: frame P:58858 Avg QP:12.45  size: 50041  PSNR Mean Y:50.26 U:53.10 V:53.29 Avg:51.01 Global:49.99
    x264 [info]: frame B:117167 Avg QP:14.80  size: 12808  PSNR Mean Y:48.80 U:52.38 V:52.55 Avg:49.66 Global:48.55
    x264 [info]: consecutive B-frames:  2.1% 13.9% 47.2% 36.8%
    x264 [info]: mb I  I16..4: 11.5% 62.6% 25.9%
    x264 [info]: mb P  I16..4:  2.4%  8.1%  3.4%  P16..4: 32.3% 29.6% 14.2%  0.0%  0.0%    skip:10.0%
    x264 [info]: mb B  I16..4:  0.3%  0.9%  0.6%  B16..8: 40.1% 21.5%  3.6%  direct: 5.8%  skip:27.4%  L0:44.8% L1:46.0% BI: 9.1%
    x264 [info]: 8x8 transform intra:57.4% inter:39.8%
    x264 [info]: coded y,uvDC,uvAC intra: 79.8% 83.8% 74.5% inter: 31.3% 25.7% 19.0%
    x264 [info]: i16 v,h,dc,p: 61% 12%  8% 20%
    x264 [info]: i8 v,h,dc,ddl,ddr,vr,hd,vl,hu: 14%  8% 12%  9% 12% 12% 11% 11% 10%
    x264 [info]: i4 v,h,dc,ddl,ddr,vr,hd,vl,hu: 26%  7%  6%  9% 13% 12% 10%  9%  8%
    x264 [info]: i8c dc,h,v,p: 59% 15% 18%  8%
    x264 [info]: ref P L0: 64.6% 22.3% 13.0%
    x264 [info]: ref B L0: 78.8% 21.2%
    x264 [info]: SSIM Mean Y:0.9901940 (20.085db)
    x264 [info]: PSNR Mean Y:49.313 U:52.644 V:52.815 Avg:50.136 Global:49.002 kb/s:4994.83

    x264 лог 1080p Release

    HandBrakeCLI -i /THE_HUNGER_GAMES_MOCKINGJAY_PART_1_2014_REMUX_HDCLUB/BDMV/STREAM/00000.m2ts -t 1 -o The.Hunger.Games.Mockingjay.Pert.1.1080p.eng.m4v -f mp4 -4 -O -w 1920 -l 800 --crop 140:140:0:0 --modulus 16 -e x264 -b 8500 -2 -a none -x ref=4:bframes=16:b-adapt=2:direct=auto:me=umh:merange=32:subq=10:rc-lookahead=60:analyse=all:trellis=2:deblock=-3,-2:qcomp=0.60:qpmin=0:qpmax=69:fast_pskip=0:aq-strength=0.8:no-dct-decimate=1:psy-rd=1.00,0.25:vbv-maxrate=25000:vbv-bufsize=25000:level=4.0 --verbose=1
    x264 [info]: frame I:1027  Avg QP:12.41  size:220506  PSNR Mean Y:51.69 U:55.47 V:55.59 Avg:52.60 Global:51.79
    x264 [info]: frame P:36302 Avg QP:15.45  size: 92257  PSNR Mean Y:49.10 U:52.99 V:53.20 Avg:50.04 Global:49.34
    x264 [info]: frame B:140121 Avg QP:16.99  size: 30342  PSNR Mean Y:48.16 U:52.50 V:52.64 Avg:49.15 Global:48.13
    x264 [info]: consecutive B-frames:  1.8%  2.0% 10.7%  7.9%  5.9% 65.1%  2.1%  0.3%  0.9%  0.3%  0.3%  0.7%  0.2%  0.2%  0.4%  0.3%  0.8%
    x264 [info]: mb I  I16..4: 29.5% 52.1% 18.4%
    x264 [info]: mb P  I16..4:  6.1% 16.2%  2.7%  P16..4: 31.7% 19.1% 11.7%  1.1%  0.6%    skip:10.8%
    x264 [info]: mb B  I16..4:  0.8%  1.1%  0.1%  B16..8: 41.0% 14.1%  3.2%  direct: 8.6%  skip:31.2%  L0:45.7% L1:38.3% BI:16.1%
    x264 [info]: 8x8 transform intra:61.6% inter:36.5%
    x264 [info]: direct mvs  spatial:99.2% temporal:0.8%
    x264 [info]: coded y,uvDC,uvAC intra: 81.8% 83.1% 73.4% inter: 30.2% 28.8% 14.9%
    x264 [info]: i16 v,h,dc,p: 41% 10% 25% 24%
    x264 [info]: i8 v,h,dc,ddl,ddr,vr,hd,vl,hu: 11% 10% 16%  8% 10% 10% 10% 11% 12%
    x264 [info]: i4 v,h,dc,ddl,ddr,vr,hd,vl,hu: 10% 11% 11%  9% 12% 12% 12% 10% 13%
    x264 [info]: i8c dc,h,v,p: 57% 17% 16% 10%
    x264 [info]: Weighted P-Frames: Y:4.7% UV:2.7%
    x264 [info]: ref P L0: 58.1%  5.5% 24.5% 10.5%  1.4%  0.1%
    x264 [info]: ref B L0: 83.4% 13.6%  3.0%
    x264 [info]: ref B L1: 93.2%  6.8%
    x264 [info]: SSIM Mean Y:0.9864867 (18.692db)
    x264 [info]: PSNR Mean Y:48.370 U:52.618 V:52.769 Avg:49.355 Global:48.364 kb/s:8460.40

    Скриншоты 480p Release

    Скриншоты 720p Release

    Скриншоты 1080p Release

    -

    Релиз подготовлен для просмотра на Apple TV, iPad, iPhone, iPod Touch.
    Для просмотра данного релиза на компьютере с ОС Windows рекомендуется использовать VLC media player
    Скачать .torrent

    Скачать торрент-файл бесплатно и на максимальной скорости!

    Как скачивать? · Что такое торрент? · Рейтинг и ограничения

    !ВНИМАНИЕ!
    Сайт не распространяет и не хранит электронные версии произведений, а занимается лишь лишь предоставлением доступа к создаваемому пользователями каталогу ссылок на торрент-файлы, которые содержат только списки хеш-сумм, убедительная просьба с жалобами обращаться напрямую к пользователю. Файлы для обмена на трекере предоставлены пользователями сайта, и администрация не несёт ответственности за их содержание. Просьба не заливать файлы, защищенные авторскими правами, а также файлы нелегального содержания!


    _________________
    [Профиль] [ЛС]
    Показать сообщения:    
    Ответить на тему

    Текущее время: Сегодня, в 11:00

    Часовой пояс: GMT + 2



    Вы не можете начинать темы
    Вы не можете отвечать на сообщения
    Вы не можете редактировать свои сообщения
    Вы не можете удалять свои сообщения
    Вы не можете голосовать в опросах
    Вы не можете прикреплять файлы к сообщениям
    Вы не можете скачивать файлы