BitTorrentTracker PerecTracker.org
BitTorrentTracker PerecTracker.org
    
Регистрация  ·  Вход
 
 · 
Забыли пароль?

  • Сын моего отца / Серии: 1-20 из 20 (Станислав Дремов) [2015, Россия, Драма, мелодрама, HDTVRip]

    Ответить на тему
     
    Автор Сообщение

    rechyn

    Создавать темы 30-Янв-2016 17:53

           

    [Цитировать]

    Сын моего отцаГод выпуска: 2015
    Производитель : Россия, Кинокомпания "Киноград 21"
    Жанр: Детектив, драма
    Продолжительность: 45 мин.
    Cубтитры: нет
    Режиссер: Станислав Дремов
    В ролях: Владимир Жеребцов, Сергей Астахов, Дарья Мингазетдинова, Евгения Осипова, Ксения Буравская, Тамара Акулова, Александр Барановский, Олег Морозов, Олег Леушин, Оксана Семенова, Иван Косичкин, Екатерина Антипова (II), Людмила Гаврилова, Сергей Ганин, Сергей Греков, Дмитрий Гусев, Кирилл Козаков, Алексей Колган, Вячеслав Коробицин, Луиза Мосендз, Александр Пашутин, Михаил Присмотров-Белов, Марина Рожина, Иван Рыжиков, Александр Серов-Останкинский, Михаил Слесарев, Татьяна Ташкова, Михаил Химичев, Жанна Эппле, Петр Черняев
    Описание: Эта история о предательстве и выборе, стоящем перед двумя братьями. Они оба талантливые нейрохирурги и оба могут возглавить клинику отца. Правда у них слишком разные взгляды на жизнь, а еще они влюблены в одну женщину…
    Глеб Романов (Владимир Жеребцов) - талантливый нейрохирург, работает в клинике в небольшом городе Озерске и готовится к свадьбе с любимой девушкой - певицей Ланой (Евгения Осипова). Но жизнь Глеба меняется навсегда, когда домой возвращается его брат Борис (Сергей Астахов). Когда-то Лана была влюблена в Бориса. Теперь он решает во чтобы то ни стало помешать их свадьбе.
    Релиз группа
    Все раздачи сериала
    Сэмпл
    Качество: HDTVRip
    Формат: AVI
    Видео кодек: XviD
    Аудио кодек: AC3
    Видео: 720x400 (1.80:1), 25 fps, XviD build 73 ~1565 kbps avg, 0.22 bit/pixel
    Аудио: 48 kHz, AC3 Dolby Digital, 2/0 (L,R) ch, ~192.00 kbps avg

    MI

    General
    Complete name : Y:\раздачи\Сын моего отца..2015.HDTVRip.RG.Russkie.serialy.&.Files-x.Сын моего отца..2015.HDTVRip.RG.Russkie.serialy.&.Files-x.avi
    Format : AVI
    Format/Info : Audio Video Interleave
    File size : 550 MiB
    Duration : 43mn 29s
    Overall bit rate : 1 767 Kbps
    Writing application : VirtualDubMod 1.5.10.3 | www.virtualdub-fr.org || (build 2550/release)
    Writing library : VirtualDubMod build 2550/release
    Video
    ID : 0
    Format : MPEG-4 Visual
    Format profile : Advanced Simple@L5
    Format settings, BVOP : 1
    Format settings, QPel : No
    Format settings, GMC : No warppoints
    Format settings, Matrix : Custom
    Codec ID : XVID
    Codec ID/Hint : XviD
    Duration : 43mn 29s
    Bit rate : 1 565 Kbps
    Width : 720 pixels
    Height : 400 pixels
    Display aspect ratio : 16:9
    Frame rate : 25.000 fps
    Color space : YUV
    Chroma subsampling : 4:2:0
    Bit depth : 8 bits
    Scan type : Progressive
    Compression mode : Lossy
    Bits/(Pixel*Frame) : 0.217
    Stream size : 487 MiB (89%)
    Writing library : XviD 73
    Audio
    ID : 1
    Format : AC-3
    Format/Info : Audio Coding 3
    Mode extension : CM (complete main)
    Format settings, Endianness : Big
    Codec ID : 2000
    Duration : 43mn 29s
    Bit rate mode : Constant
    Bit rate : 192 Kbps
    Channel(s) : 2 channels
    Channel positions : Front: L R
    Sampling rate : 48.0 KHz
    Compression mode : Lossy
    Stream size : 59.7 MiB (11%)
    Alignment : Split accross interleaves
    Interleave, duration : 40 ms (1.00 video frame)
    Interleave, preload duration : 500 ms

    Внимание! Раздача ведётся путём добавления новых серий!

    Внимание! Раздача ведётся путём добавления новых серий
    Внимание! Раздача ведётся путём добавления новых серий; при каждом добавлении создётся новый торрент.
    Чтобы начать докачку новой серии, пользователям необходимо сделать следующее:
    1) остановить скачивание
    2) удалить старый торрент у себя из клиента (старые серии удалять не надо)
    3) скачать новый торрент и запустить его у себя в клиенте вместо старого, при этом указать клиенту путь в старую папку куда и должно происходить скачивание новых серий.
    Ваш клиент при этом должен произвести хеширование (проверку) старой папки (если не производит сам - помогите ему сделать это), и будет докачивать только те серии которых у вас ещё нет. Старые серии при этом не удаляются, а продолжают раздаваться!
    Eсли вы уже удалили старые серии, то предотвратить повторную закачку старых серий можно, отжав галочку в соответствовавших местах при запуске нового торрента.

    Скриншоты

    Скачать .torrent

    Скачать торрент-файл бесплатно и на максимальной скорости!

    Как скачивать? · Что такое торрент? · Рейтинг и ограничения

    !ВНИМАНИЕ!
    Сайт не распространяет и не хранит электронные версии произведений, а занимается лишь лишь предоставлением доступа к создаваемому пользователями каталогу ссылок на торрент-файлы, которые содержат только списки хеш-сумм, убедительная просьба с жалобами обращаться напрямую к пользователю. Файлы для обмена на трекере предоставлены пользователями сайта, и администрация не несёт ответственности за их содержание. Просьба не заливать файлы, защищенные авторскими правами, а также файлы нелегального содержания!


    _________________
    [Профиль] [ЛС]
    Показать сообщения:    
    Ответить на тему

    Текущее время: Сегодня, в 22:22

    Часовой пояс: GMT + 2



    Вы не можете начинать темы
    Вы не можете отвечать на сообщения
    Вы не можете редактировать свои сообщения
    Вы не можете удалять свои сообщения
    Вы не можете голосовать в опросах
    Вы не можете прикреплять файлы к сообщениям
    Вы не можете скачивать файлы