BitTorrentTracker PerecTracker.org
BitTorrentTracker PerecTracker.org
    
Регистрация  ·  Вход
 
 · 
Забыли пароль?

  • Семейный бизнес / Сезон: 2 / Серии: 1-20 из 20 (Алексей Чистиков, Иван Китаев) [2015, Россия, Комедия, WEBRip]

    Ответить на тему
     
    Автор Сообщение

    rechyn

    Создавать темы 30-Янв-2016 17:30

           

    [Цитировать]

    Семейный бизнес 2Год выпуска: 2015
    Производитель : Россия, СТС при участии ООО «Мак Медиа»
    Жанр: Комедия
    Продолжительность: 25 мин.
    Cубтитры: нет
    Режиссер: Алексей Чистиков, Иван Китаев
    В ролях: Владимир Яглыч, Сергей Походаев, Семен Трескунов, Андрей Рудневский, Соня Грачева, Артем Башенин, Юрий Тарасов, Михаил Богдасаров, Анна Старшенбаум, Максим Пинскер, Андрей Капустин, Ирина Гришина, Максим Глотов, Виктор Цекало, Ёла Санько, Ирина Петрова, Пётр Винс, Арсений Асташкин, Максим Браматкин, Елизавета Лотова, Евгения Асланиди, Эдгард Запашный, Рафаэль Мукаев, Михаил Ремизов, Анастасия Новикова, Владимир Терещенко (II), Елена Мельникова, Наталья Чернявская, Сергей Габриэлян, Валерий Лернер (II), Михаил Пярн
    Описание: Полоса неудач Ильи Пономарева, с которой начались события первого сезона, осталась в прошлом. Сейчас в его жизни все отлично: и в семье, и в делах. Но предпринимательский дух героя не позволяет ему остановиться на достигнутом, он уверен: его творческий потенциал не должен ограничиваться рамками "мелкого и среднего бизнеса". И однажды в голову Ильи приходит очередная глобальная бизнес-идея - он хочет возродить пионерию и создать по всей стране сеть современных частных пионерлагерей! И неважно, что первый Дом Пионеров, который выкупает Илья, больше похож на обшарпанный сарай в подмосковном захолустье, а дети Пономарева не разделяют его пионерского задора. Им совсем не хочется работать в каникулы и ходить строем в дурацких галстуках, но Илье не впервой совмещать семью и бизнес. Он подписывает с ребятами договор на выгодных условиях, формирует из них "первый пионерский промо-отряд" и начинает воплощать свою мечту!

    Релиз группа
    Все раздачи сериала
    Сэмпл
    Качество: WEBRip
    Формат: AVI
    Видео кодек: XviD
    Аудио кодек: AC3
    Видео: 720x368 (1.80:1), 25 fps, XviD build 73 ~1527 kbps avg, 0.22 bit/pixel
    Аудио: 48 kHz, AC3 Dolby Digital, 2/0 (L,R) ch, ~192.00 kbps avg

    MI

    General
    Complete name : Y:\раздачи\СЕМЕЙНЫЙ БИЗНЕС-2.2015.WEB-DLRip.Files-x.СЕМЕЙНЫЙ БИЗНЕС-2.2015.WEB-DLRip.Files-x.avi
    Format : AVI
    Format/Info : Audio Video Interleave
    File size : 301 MiB
    Duration : 24mn 27s
    Overall bit rate : 1 721 Kbps
    Writing application : VirtualDubMod 1.5.10.3 (build 2550/release)
    Writing library : VirtualDubMod build 2550/release
    Video
    ID : 0
    Format : MPEG-4 Visual
    Format profile : Advanced Simple@L5
    Format settings, BVOP : 1
    Format settings, QPel : No
    Format settings, GMC : No warppoints
    Format settings, Matrix : Custom
    Codec ID : XVID
    Codec ID/Hint : XviD
    Duration : 24mn 27s
    Bit rate : 1 519 Kbps
    Width : 720 pixels
    Height : 368 pixels
    Display aspect ratio : 1.957
    Frame rate : 25.000 fps
    Color space : YUV
    Chroma subsampling : 4:2:0
    Bit depth : 8 bits
    Scan type : Progressive
    Compression mode : Lossy
    Bits/(Pixel*Frame) : 0.229
    Stream size : 266 MiB (88%)
    Writing library : XviD 73
    Audio
    ID : 1
    Format : AC-3
    Format/Info : Audio Coding 3
    Mode extension : CM (complete main)
    Format settings, Endianness : Big
    Codec ID : 2000
    Duration : 24mn 27s
    Bit rate mode : Constant
    Bit rate : 192 Kbps
    Channel(s) : 2 channels
    Channel positions : Front: L R
    Sampling rate : 48.0 KHz
    Compression mode : Lossy
    Delay relative to video : 150ms
    Stream size : 33.6 MiB (11%)
    Alignment : Split accross interleaves
    Interleave, duration : 40 ms (1.00 video frame)
    Interleave, preload duratio : 500 ms

    Внимание! Раздача ведётся путём добавления новых серий!

    Внимание! Раздача ведётся путём добавления новых серий
    Внимание! Раздача ведётся путём добавления новых серий; при каждом добавлении создётся новый торрент.
    Чтобы начать докачку новой серии, пользователям необходимо сделать следующее:
    1) остановить скачивание
    2) удалить старый торрент у себя из клиента (старые серии удалять не надо)
    3) скачать новый торрент и запустить его у себя в клиенте вместо старого, при этом указать клиенту путь в старую папку куда и должно происходить скачивание новых серий.
    Ваш клиент при этом должен произвести хеширование (проверку) старой папки (если не производит сам - помогите ему сделать это), и будет докачивать только те серии которых у вас ещё нет. Старые серии при этом не удаляются, а продолжают раздаваться!
    Eсли вы уже удалили старые серии, то предотвратить повторную закачку старых серий можно, отжав галочку в соответствовавших местах при запуске нового торрента.

    Скриншоты

    Скачать .torrent

    Скачать торрент-файл бесплатно и на максимальной скорости!

    Как скачивать? · Что такое торрент? · Рейтинг и ограничения

    !ВНИМАНИЕ!
    Сайт не распространяет и не хранит электронные версии произведений, а занимается лишь лишь предоставлением доступа к создаваемому пользователями каталогу ссылок на торрент-файлы, которые содержат только списки хеш-сумм, убедительная просьба с жалобами обращаться напрямую к пользователю. Файлы для обмена на трекере предоставлены пользователями сайта, и администрация не несёт ответственности за их содержание. Просьба не заливать файлы, защищенные авторскими правами, а также файлы нелегального содержания!


    _________________
    [Профиль] [ЛС]
    Показать сообщения:    
    Ответить на тему

    Текущее время: Сегодня, в 18:13

    Часовой пояс: GMT + 2



    Вы не можете начинать темы
    Вы не можете отвечать на сообщения
    Вы не можете редактировать свои сообщения
    Вы не можете удалять свои сообщения
    Вы не можете голосовать в опросах
    Вы не можете прикреплять файлы к сообщениям
    Вы не можете скачивать файлы