BitTorrentTracker PerecTracker.org
BitTorrentTracker PerecTracker.org
    
Регистрация  ·  Вход
 
 · 
Забыли пароль?

  • Я или не я (Точь-в-точь) / Серии: 1-4 из 4 (Максим Дашкин) [2015, Мелодрама, SATRip]

    Ответить на тему
     
    Автор Сообщение

    rechyn

    Создавать темы 30-Янв-2016 17:23

           

    [Цитировать]

    Я или не я (Точь-в-точь)-Год выпуска: 2015
    Производство: Россия, ООО "Рекун-синема"
    Жанр: Мелодрама
    Продолжительность: ~ 00:45:00
    Субтитры: Нет-Режиссёр: Максим Дашкин
    В ролях: Андрей Носков, Татьяна Федоровская, Владимир Демидов, Светлана Тян, Андрей Межулис, Вадим Проданов, Юлия Сулес, Анна Теплицина, Дмитрий Филиппов, Олег Билик, Евгений Елсуков, Анна Попович-Описание: Обычный молодой человек получает предложение всей своей жизни: работа у известной бизнесвумен. Все великолепно, если бы не одно "но": в роскошном особняке женщины он обнаруживает фотографии её семьи... с самим собой! Что же происходит? Неужели он действительно раньше был в этом доме, встречался с этими людьми? И каким образом здесь замешаны инопланетяне?-Релиз: от
    Реклама: Отсутствует
    Все раздачи сериала
    Семпл-Качество: SATRip
    Формат: AVI
    Видео кодек: XviD
    Аудио кодек: AC3
    Видео: XviD, ~ 1550 Кбит/с, 720x400, 25 кадр/с, 0,216 Бит/(Пиксели*Кадры)
    Аудио: AC3, 2 ch, 192 Кбит/с, 48,0 КГц

    MI

    General
    Complete name : D:VytasVideoJa.ili.ne.ja.2015.SATRip.Files-x1.Ja.ili.ne.ja.2015.SATRip.Files-x.avi
    Format : AVI
    Format/Info : Audio Video Interleave
    File size : 550 MiB
    Duration : 43mn 45s
    Overall bit rate : 1 759 Kbps
    Writing application : VirtualDubModRus 1.5.10.2 (build 2542/release)
    Writing library : VirtualDubMod build 2542/release
    Video
    ID : 0
    Format : MPEG-4 Visual
    Format profile : Advanced Simple@L5
    Format settings, BVOP : 1
    Format settings, QPel : No
    Format settings, GMC : No warppoints
    Format settings, Matrix : Custom
    Codec ID : XVID
    Codec ID/Hint : XviD
    Duration : 43mn 45s
    Bit rate : 1 557 Kbps
    Width : 720 pixels
    Height : 400 pixels
    Display aspect ratio : 16:9
    Frame rate : 25.000 fps
    Color space : YUV
    Chroma subsampling : 4:2:0
    Bit depth : 8 bits
    Scan type : Progressive
    Compression mode : Lossy
    Bits/(Pixel*Frame) : 0.216
    Stream size : 487 MiB (89%)
    Writing library : XviD 73
    Audio
    ID : 1
    Format : AC-3
    Format/Info : Audio Coding 3
    Mode extension : CM (complete main)
    Format settings, Endianness : Big
    Codec ID : 2000
    Duration : 43mn 45s
    Bit rate mode : Constant
    Bit rate : 192 Kbps
    Channel(s) : 2 channels
    Channel positions : Front: L R
    Sampling rate : 48.0 KHz
    Compression mode : Lossy
    Stream size : 60.1 MiB (11%)
    Alignment : Split accross interleaves
    Interleave, duration : 40 ms (1.00 video frame)
    Interleave, preload duratio : 500 ms

    Скриншоты

    Скачать .torrent

    Скачать торрент-файл бесплатно и на максимальной скорости!

    Как скачивать? · Что такое торрент? · Рейтинг и ограничения

    !ВНИМАНИЕ!
    Сайт не распространяет и не хранит электронные версии произведений, а занимается лишь лишь предоставлением доступа к создаваемому пользователями каталогу ссылок на торрент-файлы, которые содержат только списки хеш-сумм, убедительная просьба с жалобами обращаться напрямую к пользователю. Файлы для обмена на трекере предоставлены пользователями сайта, и администрация не несёт ответственности за их содержание. Просьба не заливать файлы, защищенные авторскими правами, а также файлы нелегального содержания!


    _________________
    [Профиль] [ЛС]
    Показать сообщения:    
    Ответить на тему

    Текущее время: Сегодня, в 20:44

    Часовой пояс: GMT + 2



    Вы не можете начинать темы
    Вы не можете отвечать на сообщения
    Вы не можете редактировать свои сообщения
    Вы не можете удалять свои сообщения
    Вы не можете голосовать в опросах
    Вы не можете прикреплять файлы к сообщениям
    Вы не можете скачивать файлы