Register  ·  Log in
Forgot password?

  • Я или не я (Точь-в-точь) / Серии: 1-4 из 4 (Максим Дашкин) [2015, Мелодрама, SATRip]

    Reply to topic
    Author Message


    Post 30-Jan-2016 18:23



    Я или не я (Точь-в-точь)-Год выпуска: 2015
    Производство: Россия, ООО "Рекун-синема"
    Жанр: Мелодрама
    Продолжительность: ~ 00:45:00
    Субтитры: Нет-Режиссёр: Максим Дашкин
    В ролях: Андрей Носков, Татьяна Федоровская, Владимир Демидов, Светлана Тян, Андрей Межулис, Вадим Проданов, Юлия Сулес, Анна Теплицина, Дмитрий Филиппов, Олег Билик, Евгений Елсуков, Анна Попович-Описание: Обычный молодой человек получает предложение всей своей жизни: работа у известной бизнесвумен. Все великолепно, если бы не одно "но": в роскошном особняке женщины он обнаруживает фотографии её семьи... с самим собой! Что же происходит? Неужели он действительно раньше был в этом доме, встречался с этими людьми? И каким образом здесь замешаны инопланетяне?-Релиз: от
    Реклама: Отсутствует
    Все раздачи сериала
    Семпл-Качество: SATRip
    Формат: AVI
    Видео кодек: XviD
    Аудио кодек: AC3
    Видео: XviD, ~ 1550 Кбит/с, 720x400, 25 кадр/с, 0,216 Бит/(Пиксели*Кадры)
    Аудио: AC3, 2 ch, 192 Кбит/с, 48,0 КГц


    Complete name :
    Format : AVI
    Format/Info : Audio Video Interleave
    File size : 550 MiB
    Duration : 43mn 45s
    Overall bit rate : 1 759 Kbps
    Writing application : VirtualDubModRus (build 2542/release)
    Writing library : VirtualDubMod build 2542/release
    ID : 0
    Format : MPEG-4 Visual
    Format profile : Advanced Simple@L5
    Format settings, BVOP : 1
    Format settings, QPel : No
    Format settings, GMC : No warppoints
    Format settings, Matrix : Custom
    Codec ID : XVID
    Codec ID/Hint : XviD
    Duration : 43mn 45s
    Bit rate : 1 557 Kbps
    Width : 720 pixels
    Height : 400 pixels
    Display aspect ratio : 16:9
    Frame rate : 25.000 fps
    Color space : YUV
    Chroma subsampling : 4:2:0
    Bit depth : 8 bits
    Scan type : Progressive
    Compression mode : Lossy
    Bits/(Pixel*Frame) : 0.216
    Stream size : 487 MiB (89%)
    Writing library : XviD 73
    ID : 1
    Format : AC-3
    Format/Info : Audio Coding 3
    Mode extension : CM (complete main)
    Format settings, Endianness : Big
    Codec ID : 2000
    Duration : 43mn 45s
    Bit rate mode : Constant
    Bit rate : 192 Kbps
    Channel(s) : 2 channels
    Channel positions : Front: L R
    Sampling rate : 48.0 KHz
    Compression mode : Lossy
    Stream size : 60.1 MiB (11%)
    Alignment : Split accross interleaves
    Interleave, duration : 40 ms (1.00 video frame)
    Interleave, preload duratio : 500 ms


    Download .torrent

    Download free and at maximum speed!

    How to Download? · What is a torrent? · Ratings and Limitations

    The site does not extend and does not store electronic(digital) versions of products, and only gives access to a reference catalogue created by users on torrent-files which contain only lists of the hash-sums, the earnest entreaty, with complaints(abuse) to access directly to the user. Files for an exchange on tracker are given by users of a site, and the administration does not bear the responsibility for their maintenance. The request to not fill in the files protected by copyrights, and also files of the illegal maintenance!

    [Profile] [PM]
    Display posts from previous:    
    Reply to topic

    The time now is: Today 11:35

    All times are GMT + 3 Hours

    You cannot post new topics in this forum
    You cannot reply to topics in this forum
    You cannot edit your posts in this forum
    You cannot delete your posts in this forum
    You cannot vote in polls in this forum
    You cannot attach files in this forum
    You cannot download files in this forum