BitTorrentTracker PerecTracker.org
BitTorrentTracker PerecTracker.org
    
Регистрация  ·  Вход
 
 · 
Забыли пароль?

  • 33 / The 33 / Los 33 (Патрисия Ригген / Patricia Riggen) [2015, Чили, США, Драма, катастрофа, HDRip] MVO (IDEAFILM)

    Ответить на тему
     
    Автор Сообщение

    rechyn

    Создавать темы 30-Янв-2016 16:59

           

    [Цитировать]

    33 / The 33 / Los 33
    Страна: Чили, США
    Жанр: Драма, катастрофа
    Год выпуска: 2015
    Продолжительность: 02:07:10
    Перевод: Профессиональный (многоголосый закадровый) IDEAFILM
    Cубтитры: отсутствуют
    Оригинальная аудиодорожка: нет
    Режиссёр: Патрисия Ригген / Patricia Riggen

    Дата мировой премьеры: 2 августа 2015
    Дата премьеры в России: Январь 2016, «Каро-Премьер»
    Актёры: Антонио Бандерас, Родригу Сантору, Жюльет Бинош, Джеймс Бролин, Лу Даймонд Филлипс, Марио Касас, Адриана Барраца, Кейт дель Кастилло, Коте Де Пабло, Боб Гантон, Габриэль Бирн, Наоми Скотт, Джейкоб Варгас, Оскар Нуньес, Хуан Пабло Раба, Паулина Гарсия, Федерико Луппи, Тенок Уэрта, и др.
    Краткая аннотация: Фильм основан на реальных событиях.
    Рассказ о тридцати трёх чилийских шахтёрах, которые в 2010 году на 69 дней оказались в ловушке под землёй...

    Качество видео: HDRip
    Формат видео: AVI
    Video: 720x304 (2.37:1), 23.976 fps, XviD build 73 ~1915 kbps avg, 0.27 bit/pixel
    Audio: 48 kHz, AC3 Dolby Digital, 2/0 (L,R) ch, ~384 kbps

    AviInfo

    File: The_33_2014_WEB-DLRip_[rutracker.org].avi
    Filesize: 1489.14 Mb ( 1 561 479 168 bytes )
    Play length: 02:06:57.372 (182634 frames)
    Subtitles: Not Present
    Video: 720x304 (2.37:1), 23.976 fps, XviD build 73 ~1438 kbps avg, 0.27 bit/pixel
    Audio: 48 kHz, AC3 Dolby Digital, 3/2 (L,C,R,l,r) + LFE ch, ~384 kbps avg

    MediaInfo

    Общее
    Полное имя : F:\TridCat.Tree.2O15.P.HDRip.NNM-CLUB.avi
    Формат : AVI
    Формат/Информация : Audio Video Interleave
    Профиль формата : OpenDML
    Размер файла : 2,05 Гбайт
    Продолжительность : 2 ч. 7 м.
    Общий поток : 2311 Кбит/сек
    Программа кодирования : VirtualDubMod 1.5.10.2 (build 2540/release)
    Библиотека кодирования : VirtualDubMod build 2540/release
    Видео
    Идентификатор : 0
    Формат : MPEG-4 Visual
    Профиль формата : Advanced Simple@L5
    Параметр BVOP формата : 2
    Параметр QPel формата : Нет
    Параметр GMC формата : Без точки перехода
    Параметр матрицы формата : Default (MPEG)
    Идентификатор кодека : XVID
    Идентификатор кодека/Подсказка : XviD
    Продолжительность : 2 ч. 7 м.
    Битрейт : 1915 Кбит/сек
    Ширина : 720 пикселей
    Высота : 304 пикселя
    Соотношение сторон : 2,35:1
    Частота кадров : 23,976 кадра/сек
    Цветовое пространство : YUV
    Субдискретизация насыщенности : 4:2:0
    Битовая глубина : 8 бит
    Тип развёртки : Прогрессивная
    Метод сжатия : С потерями
    Бит/(Пиксели*Кадры) : 0.365
    Размер потока : 1,70 Гбайт (83%)
    Библиотека кодирования : XviD 1.2.1 (UTC 2008-12-04)
    Аудио
    Идентификатор : 1
    Формат : AC-3
    Формат/Информация : Audio Coding 3
    Расширение режима : CM (complete main)
    Параметр Endianness формата : Big
    Идентификатор кодека : 2000
    Продолжительность : 2 ч. 7 м.
    Вид битрейта : Постоянный
    Битрейт : 384 Кбит/сек
    Каналы : 6 каналов
    Расположение каналов : Front: L C R, Side: L R, LFE
    Частота : 48,0 КГц
    Битовая глубина : 16 бит
    Метод сжатия : С потерями
    Размер потока : 349 Мбайт (17%)
    Выравнивание : Разделение по промежуткам
    Продолжительность промежутка : 42 мс. (1,00 видеокадр)
    Время предзагрузки промежутка : 500 мс.

    Скриншоты

    Скачать .torrent

    Скачать торрент-файл бесплатно и на максимальной скорости!

    Как скачивать? · Что такое торрент? · Рейтинг и ограничения

    !ВНИМАНИЕ!
    Сайт не распространяет и не хранит электронные версии произведений, а занимается лишь лишь предоставлением доступа к создаваемому пользователями каталогу ссылок на торрент-файлы, которые содержат только списки хеш-сумм, убедительная просьба с жалобами обращаться напрямую к пользователю. Файлы для обмена на трекере предоставлены пользователями сайта, и администрация не несёт ответственности за их содержание. Просьба не заливать файлы, защищенные авторскими правами, а также файлы нелегального содержания!


    _________________
    [Профиль] [ЛС]
    Показать сообщения:    
    Ответить на тему

    Текущее время: Сегодня, в 00:28

    Часовой пояс: GMT + 2



    Вы не можете начинать темы
    Вы не можете отвечать на сообщения
    Вы не можете редактировать свои сообщения
    Вы не можете удалять свои сообщения
    Вы не можете голосовать в опросах
    Вы не можете прикреплять файлы к сообщениям
    Вы не можете скачивать файлы