BitTorrentTracker PerecTracker.org
BitTorrentTracker PerecTracker.org
    
Регистрация  ·  Вход
 
 · 
Забыли пароль?

  • Судная ночь 2 / The Purge: Anarchy (Джеймс ДеМонако / James DeMonaco) [2014 г., США, Франция, триллер, криминал, боевик, BDRip 720p] Dub + AVO (Карповский) + Original Eng + Sub (Rus, Ukr, Eng)

    Ответить на тему
     
    Автор Сообщение

    Flirldrerve

    Создавать темы 29-Янв-2016 22:18

           

    [Цитировать]

    -Судная ночь 2 / The Purge: Anarchy«Добро пожаловать в идеальное будущее, где одну ночь в году все преступления легальны»Страна: США, Франция
    Студия: Blumhouse Productions, Platinum Dunes, Universal Pictures, Why Not Productions
    Жанр: Триллер, криминал, боевик
    Год выпуска: 2014
    Продолжительность: 01:43:34-Перевод 1: Профессиональный (полное дублирование), BD EUR
    Перевод 2: Авторский (одноголосый, закадровый), А. Карповский
    Оригинальная аудиодорожка: английский
    Cубтитры: русские, украинские, английские
    Режиссер: Джеймс ДеМонако / James DeMonaco
    В ролях: Фрэнк Грилло, Кармен Эджого, Зак Гилфорд, Киле Санчес, Майкл К. Уильямс, Зои Борд, Жустина Мачадо, Джон Бизли, Джек Конли, Ноэль Гульеми
    Описание: Добро пожаловать в идеальный мир будущего, мир без преступности и войн. И только один раз в году роскошная спокойная жизнь сменяется анархией. Этой ночью дозволено все: во тьме улиц одни жаждут мести, другие ищут развлечений, остальные пытаются дожить до рассвета...-
    Сэмпл: скачать-Релиз от -
    Автор рипа: Elheym
    Качество: BDRip 720p (источник: / Blu-ray EUR / 1080p)
    Контейнер: MKV
    Видео: 1280x534 (2.40:1), 23.976 fps, MPEG-4 AVC, ~8200 kbps avg, 0.500 bit/pixel
    Аудио #1: Русский: DTS, 5.1, 48 kHz, ~768 Кбит/с | Профессиональный (полное дублирование), BD EUR |
    Аудио #2: Русский: DTS, 5.1, 48 kHz, ~1509 Кбит/с | Авторский (одноголосый, закадровый), Карповский |
    Аудио #3: Английский: DTS, 5.1, 48 kHz, ~1509 Кбит/с | Оригинал |
    Субтитры: Русские (полные, форсированные), Украинские (полные), Английские (полные, полные SDH, полные SDH Colored)
    Главы: Присутствуют, сохранены оригинальные

    MediaInfo

    Уникальный идентификатор : 229288535590225656563715476932521324564 (0xAC7F5D9BE14D8BA7A1BF8CF343D77014)
    Полное имя : The.Purge.Anarchy.2014.720p.BluRay.2xRus.Eng.-HQCLUB.mkv
    Формат : Matroska
    Версия формата : Version 2
    Размер файла : 8,65 Гбайт
    Продолжительность : 1 ч. 43 м.
    Общий поток : 12,0 Мбит/сек
    Дата кодирования : UTC 2014-11-16 19:28:55
    Программа кодирования : mkvmerge v5.2.0 ('I can't explain') built on Dec 18 2011 18:12:03
    Библиотека кодирования : libebml v1.2.3 + libmatroska v1.3.0
    Видео
    Идентификатор : 1
    Формат : AVC
    Формат/Информация : Advanced Video Codec
    Профиль формата : High@L4.1
    Параметр CABAC формата : Да
    Параметр ReFrames формата : 10 кадров
    Идентификатор кодека : V_MPEG4/ISO/AVC
    Продолжительность : 1 ч. 43 м.
    Битрейт : 8200 Кбит/сек
    Ширина : 1280 пикселей
    Высота : 534 пикселя
    Соотношение сторон : 2,40:1
    Режим частоты кадров : Постоянный
    Частота кадров : 23,976 кадра/сек
    Цветовое пространство : YUV
    Субдискретизация насыщенности : 4:2:0
    Битовая глубина : 8 бит
    Тип развёртки : Прогрессивная
    Бит/(Пиксели*Кадры) : 0.500
    Размер потока : 5,74 Гбайт (66%)
    Заголовок : Судная ночь 2 / The Purge: Anarchy (2014) BDRip 720p by HQCLUB [Elheym]
    Библиотека кодирования : x264 core 142 r2479kMod dd79a61
    Настройки программы : cabac=1 / ref=11 / deblock=1:-3:-2 / analyse=0x3:0x113 / me=umh / subme=11 / psy=1 / fade_compensate=0.00 / psy_rd=1.07:0.05 / mixed_ref=1 / me_range=32 / chroma_me=1 / trellis=2 / 8x8dct=1 / cqm=0 / deadzone=21,11 / fast_pskip=0 / chroma_qp_offset=-5 / threads=6 / lookahead_threads=1 / sliced_threads=0 / nr=0 / decimate=1 / interlaced=0 / bluray_compat=0 / constrained_intra=0 / fgo=0 / bframes=9 / b_pyramid=1 / b_adapt=2 / b_bias=0 / direct=3 / weightb=1 / open_gop=0 / weightp=2 / keyint=230 / keyint_min=23 / scenecut=40 / intra_refresh=0 / rc_lookahead=40 / rc=2pass / mbtree=0 / bitrate=8200 / ratetol=1.0 / qcomp=0.70 / qpmin=0 / qpmax=69 / qpstep=4 / cplxblur=20.0 / qblur=0.5 / vbv_maxrate=50000 / vbv_bufsize=62500 / nal_hrd=none / filler=0 / ip_ratio=1.40 / pb_ratio=1.30 / aq=1:0.90
    Язык : English
    Default : Да
    Forced : Нет
    Аудио #1
    Идентификатор : 2
    Формат : DTS
    Формат/Информация : Digital Theater Systems
    Режим : 16
    Параметр Endianness формата : Big
    Идентификатор кодека : A_DTS
    Продолжительность : 1 ч. 43 м.
    Вид битрейта : Постоянный
    Битрейт : 768 Кбит/сек
    Каналы : 6 каналов
    Расположение каналов : Front: L C R, Side: L R, LFE
    Частота : 48,0 КГц
    Битовая глубина : 24 бит
    Метод сжатия : С потерями
    Размер потока : 569 Мбайт (6%)
    Заголовок : DTS 5.1 @ 768 kbps - Dub, BD EUR
    Язык : Russian
    Default : Нет
    Forced : Нет
    Аудио #2
    Идентификатор : 3
    Формат : DTS
    Формат/Информация : Digital Theater Systems
    Режим : 16
    Параметр Endianness формата : Big
    Идентификатор кодека : A_DTS
    Продолжительность : 1 ч. 43 м.
    Вид битрейта : Постоянный
    Битрейт : 1509 Кбит/сек
    Каналы : 6 каналов
    Расположение каналов : Front: L C R, Side: L R, LFE
    Частота : 48,0 КГц
    Битовая глубина : 24 бит
    Метод сжатия : С потерями
    Размер потока : 1,09 Гбайт (13%)
    Заголовок : DTS 5.1 @ 1509 kbps - AVO, Karpovskij
    Язык : Russian
    Default : Нет
    Forced : Нет
    Аудио #3
    Идентификатор : 4
    Формат : DTS
    Формат/Информация : Digital Theater Systems
    Режим : 16
    Параметр Endianness формата : Big
    Идентификатор кодека : A_DTS
    Продолжительность : 1 ч. 43 м.
    Вид битрейта : Постоянный
    Битрейт : 1509 Кбит/сек
    Каналы : 6 каналов
    Расположение каналов : Front: L C R, Side: L R, LFE
    Частота : 48,0 КГц
    Битовая глубина : 24 бит
    Метод сжатия : С потерями
    Размер потока : 1,09 Гбайт (13%)
    Заголовок : DTS 5.1 @ 1509 kbps - Original
    Язык : English
    Default : Нет
    Forced : Нет
    Текст #1
    Идентификатор : 5
    Формат : UTF-8
    Идентификатор кодека : S_TEXT/UTF8
    Идентификатор кодека/Информация : UTF-8 Plain Text
    Заголовок : Full
    Язык : Russian
    Default : Нет
    Forced : Нет
    Текст #2
    Идентификатор : 6
    Формат : UTF-8
    Идентификатор кодека : S_TEXT/UTF8
    Идентификатор кодека/Информация : UTF-8 Plain Text
    Заголовок : Forced
    Язык : Russian
    Default : Да
    Forced : Нет
    Текст #3
    Идентификатор : 7
    Формат : UTF-8
    Идентификатор кодека : S_TEXT/UTF8
    Идентификатор кодека/Информация : UTF-8 Plain Text
    Заголовок : Full
    Язык : Ukrainian
    Default : Нет
    Forced : Нет
    Текст #4
    Идентификатор : 8
    Формат : UTF-8
    Идентификатор кодека : S_TEXT/UTF8
    Идентификатор кодека/Информация : UTF-8 Plain Text
    Заголовок : Full
    Язык : English
    Default : Нет
    Forced : Нет
    Текст #5
    Идентификатор : 9
    Формат : UTF-8
    Идентификатор кодека : S_TEXT/UTF8
    Идентификатор кодека/Информация : UTF-8 Plain Text
    Заголовок : Full SDH
    Язык : English
    Default : Нет
    Forced : Нет
    Текст #6
    Идентификатор : 10
    Формат : UTF-8
    Идентификатор кодека : S_TEXT/UTF8
    Идентификатор кодека/Информация : UTF-8 Plain Text
    Заголовок : Full SDH Colored
    Язык : English
    Default : Нет
    Forced : Нет
    Меню
    00:00:00.000 : :Chapter 01
    00:05:14.521 : :Chapter 02
    00:09:49.838 : :Chapter 03
    00:14:37.293 : :Chapter 04
    00:18:32.944 : :Chapter 05
    00:23:17.229 : :Chapter 06
    00:31:21.796 : :Chapter 07
    00:36:28.935 : :Chapter 08
    00:41:18.559 : :Chapter 09
    00:47:13.831 : :Chapter 10
    00:51:38.761 : :Chapter 11
    00:57:27.943 : :Chapter 12
    01:01:48.662 : :Chapter 13
    01:06:49.213 : :Chapter 14
    01:10:11.916 : :Chapter 15
    01:15:45.747 : :Chapter 16
    01:21:14.493 : :Chapter 17
    01:26:41.154 : :Chapter 18
    01:31:17.970 : :Chapter 19
    01:36:47.051 : :Chapter 20
    01:43:34.498 : :Chapter 21

    x264 log

    x264 [info]: frame I:1090 Avg QP:12.53 size:132942
    x264 [info]: frame P:35331 Avg QP:14.28 size: 67635
    x264 [info]: frame B:112584 Avg QP:16.37 size: 33868
    x264 [info]: consecutive B-frames: 3.2% 4.5% 12.4% 14.2% 19.7% 39.0% 4.3% 1.0% 1.0% 0.8%
    x264 [info]: ref P L0: 50.3% 7.4% 17.8% 8.2% 5.1% 3.7% 2.8% 1.7% 1.4% 1.2% 0.2% 0.0%
    x264 [info]: ref B L0: 72.2% 12.3% 6.4% 3.1% 2.1% 1.5% 1.2% 0.7% 0.4%
    x264 [info]: ref B L1: 90.5% 9.5%

    Скриншоты

    Скачать .torrent

    Скачать торрент-файл бесплатно и на максимальной скорости!

    Как скачивать? · Что такое торрент? · Рейтинг и ограничения

    !ВНИМАНИЕ!
    Сайт не распространяет и не хранит электронные версии произведений, а занимается лишь лишь предоставлением доступа к создаваемому пользователями каталогу ссылок на торрент-файлы, которые содержат только списки хеш-сумм, убедительная просьба с жалобами обращаться напрямую к пользователю. Файлы для обмена на трекере предоставлены пользователями сайта, и администрация не несёт ответственности за их содержание. Просьба не заливать файлы, защищенные авторскими правами, а также файлы нелегального содержания!


    _________________
    [Профиль] [ЛС]
    Показать сообщения:    
    Ответить на тему

    Текущее время: Сегодня, в 20:01

    Часовой пояс: GMT + 2



    Вы не можете начинать темы
    Вы не можете отвечать на сообщения
    Вы не можете редактировать свои сообщения
    Вы не можете удалять свои сообщения
    Вы не можете голосовать в опросах
    Вы не можете прикреплять файлы к сообщениям
    Вы не можете скачивать файлы