Register  ·  Log in
Forgot password?

  • Преступная Деятельность / Criminal Activities (Джеки Эрл Хейли / Jackie Earle Haley) [2015, США, Триллер, Драма, Криминал, HDRip] MVO (IdeaFilm)

    Reply to topic
    Author Message


    Post 29-Jan-2016 23:18



    -Преступная Деятельность / Criminal Activities--Страна: США
    Жанр: Триллер, Драма, Криминал
    Год выпуска: 2015
    Продолжительность: 01:33:54-Перевод: Профессиональный (многоголосый закадровый) IdeaFilm-Cубтитры: нет
    Оригинальная аудиодорожка: нет-Режиссер: Джеки Эрл Хейли / Jackie Earle Haley-В ролях: Дэн Стивенс, Джон Траволта, Джеки Эрл Хейли, Майкл Питт, Эди Гатеги, Кристофер Эбботт, Роб Браун, Лиза Катара, Трэвис Аарон, Морган Волк-Описание: Четверо молодых людей инвестировали деньги в рискованное дело, которое приводит их к конфликту с мафией.---Качество видео: HDRip
    Формат видео: AVI-Видео: XviD, 720x304 (2.37:1), 23.976 fps, ~1770 kbps avg, 0.33 bit/pixel
    Аудио: 48 kHz, AC3 Dolby Digital, 3/2 (L,C,R,l,r) + LFE ch, ~384 kbps avg-


    Complete name : E:\РАЗДАЧИ\Criminal Activities (2015) HDRip.avi
    Format : AVI
    Format/Info : Audio Video Interleave
    File size : 1.42 GiB
    Duration : 1h 33mn
    Overall bit rate : 2 164 Kbps
    Writing library : VirtualDub build 32842/release
    ID : 0
    Format : MPEG-4 Visual
    Format profile : Advanced Simple@L5
    Format settings, BVOP : 2
    Format settings, QPel : No
    Format settings, GMC : No warppoints
    Format settings, Matrix : Custom
    Codec ID : XVID
    Codec ID/Hint : XviD
    Duration : 1h 33mn
    Bit rate : 1 771 Kbps
    Width : 720 pixels
    Height : 304 pixels
    Display aspect ratio : 2.35:1
    Frame rate : 23.976 fps
    Color space : YUV
    Chroma subsampling : 4:2:0
    Bit depth : 8 bits
    Scan type : Progressive
    Compression mode : Lossy
    Bits/(Pixel*Frame) : 0.337
    Stream size : 1.16 GiB (82%)
    Writing library : XviD 73
    ID : 1
    Format : AC-3
    Format/Info : Audio Coding 3
    Mode extension : CM (complete main)
    Format settings, Endianness : Big
    Codec ID : 2000
    Duration : 1h 33mn
    Bit rate mode : Constant
    Bit rate : 384 Kbps
    Channel(s) : 6 channels
    Channel positions : Front: L C R, Side: L R, LFE
    Sampling rate : 48.0 KHz
    Bit depth : 16 bits
    Compression mode : Lossy
    Stream size : 258 MiB (18%)
    Alignment : Split accross interleaves
    Interleave, duration : 42 ms (1.00 video frame)
    Interleave, preload duration : 500 ms

    Скриншот c названием фильма


    Download .torrent

    Download free and at maximum speed!

    How to Download? · What is a torrent? · Ratings and Limitations

    The site does not extend and does not store electronic(digital) versions of products, and only gives access to a reference catalogue created by users on torrent-files which contain only lists of the hash-sums, the earnest entreaty, with complaints(abuse) to access directly to the user. Files for an exchange on tracker are given by users of a site, and the administration does not bear the responsibility for their maintenance. The request to not fill in the files protected by copyrights, and also files of the illegal maintenance!

    [Profile] [PM]
    Display posts from previous:    
    Reply to topic

    The time now is: Today 09:29

    All times are GMT + 3 Hours

    You cannot post new topics in this forum
    You cannot reply to topics in this forum
    You cannot edit your posts in this forum
    You cannot delete your posts in this forum
    You cannot vote in polls in this forum
    You cannot attach files in this forum
    You cannot download files in this forum