BitTorrentTracker PerecTracker.org
BitTorrentTracker PerecTracker.org
    
Регистрация  ·  Вход
 
 · 
Забыли пароль?

  • Лучше свинки нет скотинки / Tout est bon dans le cochon (Давид Дельрье / David Delrieux) [2011, Франция, драма, комедия, мелодрама, DVB] Original (Fre) + Sub (Rus, Eng, Fre, Deu)

    Ответить на тему
     
    Автор Сообщение

    rechyn

    Создавать темы 29-Янв-2016 22:18

           

    [Цитировать]

    Лучше свинки нет скотинки
    Tout est bon dans le cochon-Страна: Франция
    Жанр: драма, комедия, мелодрама
    Год выпуска: 2011
    Продолжительность: 01:33:36Перевод: Субтитры (перевод М.Кузиной, Éclair Group)
    Cубтитры: русские, английские, французские, немецкие, нидерландские, румынские
    Оригинальная аудиодорожка: французский
    Режиссер: Давид Дельрье / David Delrieux
    В ролях: Саида Джавад / Saïda Jawad (Sophia Eltrani), Эрван Креану / Erwan Creignou (Pierre), Патрик Боннель / Patrick Bonnel (Louis, le Maire), Эрик Наггар / Éric Naggar (Roland, le curé), Изабель де Боттон / Isabelle de Botton (La commère), Урбен Канселье / Urbain Cancelier (l'employé de Pôle emploi), Анатоль де Бодина / Anatole de Bodinat (Martin)
    Описание: Энергичная молодая марокканка София находится в отчаянном поиске стабильной работы. В связи с административной ошибкой ее фамилия становится благозвучно звучащей по-итальянски Бельтрани вместо арабской Эльтрани. И это сыграло ей на руку - работник центра занятости предложил Софии работу в деревушке Крез. Но вот работа-то оказалась на небольшом мясокомбинате, где основной продукт - свинина… И встал вопрос борьбы между насущными потребностями и традициями национальной культуры…
    Доп. информация: Hot Bird (13.0°E) TV5MONDE Europe DVB-S
    Награды: 2 приза Festival du film de télévision de Luchon 2012 (лучший актер - Erwan Creignou, Специальный почетный приз жюри); номинация на премию "Хрустальный глобус" (Франция) 2014 за лучший телефильм.

    Качество видео: DVB
    Формат видео: TS
    Видео: MPEG Video 2, 720x576@1024x576 (16:9), 25 fps, ~3263 kbps avg, 0.315 bit/pixel
    Аудио: MPEG Audio 2, 2 ch, 48 kHz, 192 kbps - французский
    Формат субтитров: PGS

    MediaInfo

    ОбщееИдентификатор : 1 (0x1)Полное имя : [apreder]Tout_est_bon_dans_le_cochon(2011)DVB.tsФормат : MPEG-TSРазмер файла : 2,38 ГбайтПродолжительность : 1 ч. 33 м.Режим общего битрейта : ПеременныйОбщий поток : 3636 Кбит/секМаксимальный общий битрейт : 35,5 Мбит/сек
    ВидеоИдентификатор : 4113 (0x1011)Идентификатор меню : 1 (0x1)Формат : MPEG VideoВерсия формата : Version 2Профиль формата : Main@MainПараметр BVOP формата : ДаПараметр матрицы формата : ВыборочнаяПараметр GOP формата : VariableFormat_Settings_PictureStructure : FrameИдентификатор кодека : 2Продолжительность : 1 ч. 33 м.Вид битрейта : ПеременныйБитрейт : 3263 Кбит/секШирина : 720 пикселейВысота : 576 пикселейСоотношение сторон : 16:9Частота кадров : 25,000 кадров/секСтандарт вещания : PALЦветовое пространство : YUVСубдискретизация насыщенности : 4:2:0Битовая глубина : 8 битТип развёртки : ЧересстрочнаяПорядок развёртки : Верхнее поле первоеМетод сжатия : С потерямиБит/(Пиксели*Кадры) : 0.315Временной код первого кадра : 00:00:00:00Оригинал временного кода : Group of pictures headerРазмер потока : 2,13 Гбайт (90%)
    АудиоИдентификатор : 4352 (0x1100)Идентификатор меню : 1 (0x1)Формат : MPEG AudioВерсия формата : Version 1Профиль формата : Layer 2Режим : Joint stereoРасширение режима : Intensity Stereo + MS StereoИдентификатор кодека : 4Продолжительность : 1 ч. 33 м.Вид битрейта : ПостоянныйБитрейт : 192 Кбит/секКаналы : 2 каналаЧастота : 48,0 КГцМетод сжатия : С потерямиРазмер потока : 129 Мбайт (5%)Язык : French
    Текст #1Идентификатор : 4608 (0x1200)Идентификатор меню : 1 (0x1)Формат : PGSИдентификатор кодека : 144Продолжительность : 1 ч. 33 м.Задержка видео : 1 с. 560 мс.Язык : Russian
    Текст #2Идентификатор : 4609 (0x1201)Идентификатор меню : 1 (0x1)Формат : PGSИдентификатор кодека : 144Задержка видео : 4 с. 920 мс.Язык : English
    Текст #3Идентификатор : 4610 (0x1202)Идентификатор меню : 1 (0x1)Формат : PGSИдентификатор кодека : 144Продолжительность : 1 ч. 33 м.Задержка видео : 5 с. 0 мс.Язык : French
    Текст #4Идентификатор : 4611 (0x1203)Идентификатор меню : 1 (0x1)Формат : PGSИдентификатор кодека : 144Продолжительность : 1 ч. 33 м.Задержка видео : 1 с. 560 мс.Язык : German
    Текст #5Идентификатор : 4612 (0x1204)Идентификатор меню : 1 (0x1)Формат : PGSИдентификатор кодека : 144Продолжительность : 1 ч. 33 м.Задержка видео : 1 с. 560 мс.Язык : Dutch
    Текст #6Идентификатор : 4613 (0x1205)Идентификатор меню : 1 (0x1)Формат : PGSИдентификатор кодека : 144Задержка видео : 5 с. 240 мс.Язык : Romanian

    Скриншот c названием фильма

    Скриншоты


    Резервные скриншоты


    Скачать .torrent

    Скачать торрент-файл бесплатно и на максимальной скорости!

    Как скачивать? · Что такое торрент? · Рейтинг и ограничения

    !ВНИМАНИЕ!
    Сайт не распространяет и не хранит электронные версии произведений, а занимается лишь лишь предоставлением доступа к создаваемому пользователями каталогу ссылок на торрент-файлы, которые содержат только списки хеш-сумм, убедительная просьба с жалобами обращаться напрямую к пользователю. Файлы для обмена на трекере предоставлены пользователями сайта, и администрация не несёт ответственности за их содержание. Просьба не заливать файлы, защищенные авторскими правами, а также файлы нелегального содержания!


    _________________
    [Профиль] [ЛС]
    Показать сообщения:    
    Ответить на тему

    Текущее время: Сегодня, в 02:34

    Часовой пояс: GMT + 2



    Вы не можете начинать темы
    Вы не можете отвечать на сообщения
    Вы не можете редактировать свои сообщения
    Вы не можете удалять свои сообщения
    Вы не можете голосовать в опросах
    Вы не можете прикреплять файлы к сообщениям
    Вы не можете скачивать файлы