BitTorrentTracker PerecTracker.org
BitTorrentTracker PerecTracker.org
    
Регистрация  ·  Вход
 
 · 
Забыли пароль?

  • Бог не умер / God\'s Not Dead (Харольд Кронк / Harold Cronk) [2014, США, драма, HDRip] MVO (SorzTeam)

    Ответить на тему
     
    Автор Сообщение

    rechyn

    Создавать темы 29-Янв-2016 13:26

           

    [Цитировать]

    Бог не умер / God's Not Dead
    Страна: США
    Жанр: драма
    Год выпуска: 2014
    Продолжительность: 01:52:45
    Перевод: Любительский (многоголосый закадровый) SorzTeam
    Cубтитры: нет
    Оригинальная аудиодорожка: нет
    Режиссер: Харольд Кронк / Harold Cronk
    В ролях: Уилли Робертсон, Дэвид Э.Р. Уайт, Шэйн Харпер, Кевин Сорбо, Марко Хэнлиэн, Алекс Аристидис, Лиза Арнольд, Ленор Бэнкс, Томми Блэйз
    Описание: Извечное столкновение религии и атеизма. На сей раз полем боя для защиты своих идеалов будет служить учебная аудитория, где профессор Рэдиссон сойдется в нешуточном сражении со своим учеником, верящим в Бога всей душой.
    Сэмпл: http://sendfile.su/1198103
    Качество видео: HDRip
    Формат видео: AVI
    Видео: XviD, 720x404 (16:9), 23.976 fps, ~1593 kbps, 0.228 bit/pixel
    Аудио: 44.1 kHz, AC3, 2/0 (L,R) ch, ~192 kbps (Русский многоголосый, SorzTeam)

    MediaInfo

    General
    Complete name : God's Not Dead.1.4.avi
    Format : AVI
    Format/Info : Audio Video Interleave
    Format profile : OpenDML
    File size : 1.42 GiB
    Duration : 1h 52mn
    Overall bit rate : 1 797 Kbps
    Writing application : Lavf54.63.104
    Video
    ID : 0
    Format : xvid
    Codec ID : xvid
    Duration : 1h 52mn
    Bit rate : 1 593 Kbps
    Width : 720 pixels
    Height : 404 pixels
    Display aspect ratio : 16:9
    Frame rate : 23.976 fps
    Bits/(Pixel*Frame) : 0.228
    Stream size : 1.26 GiB (89%)
    Audio
    ID : 1
    Format : AC-3
    Format/Info : Audio Coding 3
    Mode extension : CM (complete main)
    Format settings, Endianness : Big
    Codec ID : 2000
    Duration : 1h 52mn
    Bit rate mode : Constant
    Bit rate : 192 Kbps
    Channel(s) : 2 channels
    Channel positions : Front: L R
    Sampling rate : 44.1 KHz
    Frame rate : 28.711 fps (1536 spf)
    Bit depth : 16 bits
    Compression mode : Lossy
    Stream size : 155 MiB (11%)
    Alignment : Aligned on interleaves
    Interleave, duration : 35 ms (0.84 video frame)

    Скриншот c названием фильма

    Скриншоты

    Скачать .torrent

    Скачать торрент-файл бесплатно и на максимальной скорости!

    Как скачивать? · Что такое торрент? · Рейтинг и ограничения

    !ВНИМАНИЕ!
    Сайт не распространяет и не хранит электронные версии произведений, а занимается лишь лишь предоставлением доступа к создаваемому пользователями каталогу ссылок на торрент-файлы, которые содержат только списки хеш-сумм, убедительная просьба с жалобами обращаться напрямую к пользователю. Файлы для обмена на трекере предоставлены пользователями сайта, и администрация не несёт ответственности за их содержание. Просьба не заливать файлы, защищенные авторскими правами, а также файлы нелегального содержания!


    _________________
    [Профиль] [ЛС]
    Показать сообщения:    
    Ответить на тему

    Текущее время: Сегодня, в 12:43

    Часовой пояс: GMT + 2



    Вы не можете начинать темы
    Вы не можете отвечать на сообщения
    Вы не можете редактировать свои сообщения
    Вы не можете удалять свои сообщения
    Вы не можете голосовать в опросах
    Вы не можете прикреплять файлы к сообщениям
    Вы не можете скачивать файлы