Register  ·  Log in
Forgot password?

  • Бог не умер / God\'s Not Dead (Харольд Кронк / Harold Cronk) [2014, США, драма, HDRip] MVO (SorzTeam)

    Reply to topic
    Author Message


    Post 29-Jan-2016 14:26



    Бог не умер / God's Not Dead
    Страна: США
    Жанр: драма
    Год выпуска: 2014
    Продолжительность: 01:52:45
    Перевод: Любительский (многоголосый закадровый) SorzTeam
    Cубтитры: нет
    Оригинальная аудиодорожка: нет
    Режиссер: Харольд Кронк / Harold Cronk
    В ролях: Уилли Робертсон, Дэвид Э.Р. Уайт, Шэйн Харпер, Кевин Сорбо, Марко Хэнлиэн, Алекс Аристидис, Лиза Арнольд, Ленор Бэнкс, Томми Блэйз
    Описание: Извечное столкновение религии и атеизма. На сей раз полем боя для защиты своих идеалов будет служить учебная аудитория, где профессор Рэдиссон сойдется в нешуточном сражении со своим учеником, верящим в Бога всей душой.
    Качество видео: HDRip
    Формат видео: AVI
    Видео: XviD, 720x404 (16:9), 23.976 fps, ~1593 kbps, 0.228 bit/pixel
    Аудио: 44.1 kHz, AC3, 2/0 (L,R) ch, ~192 kbps (Русский многоголосый, SorzTeam)


    Complete name : God's Not Dead.1.4.avi
    Format : AVI
    Format/Info : Audio Video Interleave
    Format profile : OpenDML
    File size : 1.42 GiB
    Duration : 1h 52mn
    Overall bit rate : 1 797 Kbps
    Writing application : Lavf54.63.104
    ID : 0
    Format : xvid
    Codec ID : xvid
    Duration : 1h 52mn
    Bit rate : 1 593 Kbps
    Width : 720 pixels
    Height : 404 pixels
    Display aspect ratio : 16:9
    Frame rate : 23.976 fps
    Bits/(Pixel*Frame) : 0.228
    Stream size : 1.26 GiB (89%)
    ID : 1
    Format : AC-3
    Format/Info : Audio Coding 3
    Mode extension : CM (complete main)
    Format settings, Endianness : Big
    Codec ID : 2000
    Duration : 1h 52mn
    Bit rate mode : Constant
    Bit rate : 192 Kbps
    Channel(s) : 2 channels
    Channel positions : Front: L R
    Sampling rate : 44.1 KHz
    Frame rate : 28.711 fps (1536 spf)
    Bit depth : 16 bits
    Compression mode : Lossy
    Stream size : 155 MiB (11%)
    Alignment : Aligned on interleaves
    Interleave, duration : 35 ms (0.84 video frame)

    Скриншот c названием фильма


    Download .torrent

    Download free and at maximum speed!

    How to Download? · What is a torrent? · Ratings and Limitations

    The site does not extend and does not store electronic(digital) versions of products, and only gives access to a reference catalogue created by users on torrent-files which contain only lists of the hash-sums, the earnest entreaty, with complaints(abuse) to access directly to the user. Files for an exchange on tracker are given by users of a site, and the administration does not bear the responsibility for their maintenance. The request to not fill in the files protected by copyrights, and also files of the illegal maintenance!

    [Profile] [PM]
    Display posts from previous:    
    Reply to topic

    The time now is: Today 21:10

    All times are GMT + 3 Hours

    You cannot post new topics in this forum
    You cannot reply to topics in this forum
    You cannot edit your posts in this forum
    You cannot delete your posts in this forum
    You cannot vote in polls in this forum
    You cannot attach files in this forum
    You cannot download files in this forum