BitTorrentTracker PerecTracker.org
BitTorrentTracker PerecTracker.org
    
Регистрация  ·  Вход
 
 · 
Забыли пароль?

  • В поисках утраченного времени / À la recherche du temps perdu (Нина Компанез / Nina Companéez) [2011, Франция, драма, исторический, биография, SATRip] Original Fre + Rus hardsub

    Ответить на тему
     
    Автор Сообщение

    rechyn

    Создавать темы 29-Янв-2016 13:26

           

    [Цитировать]

    В поисках утраченного времени / À la recherche du temps perdu
    Страна: Франция
    Жанр: драма, исторический, биография
    Год выпуска: 2011
    Продолжительность: 03:50:54 (01:52:25 + 01:58:29)
    Перевод: Субтитры Е.Маньен, Éclair Group
    Cубтитры: русские
    Оригинальная аудиодорожка: французский
    Режиссер: Нина Компанез / Nina Companéez
    В ролях: Миша Леско, Доминик Блан, Дидье Сандр, Валентайн Варела, Бернар Фарси, Катрин Сами, Доминик Валадье, Каролин Тиллетт, Энди Жилет, Анна Дане, Франсуаз Бертен
    Описание: Творчески оформляя свою прошлую жизнь, переживая ее вновь, писатель Марсель Пруст создал цикл "В поисках утраченного времени", состоящий из 7 самостоятельных романов. Двухсерийный фильм - история жизни Марселя, начиная с его детства в коммуне Комбре и заканчивая его знакомством со светскими развлечениями высшего общества. Реально прожитая жизнь осознается Прустом как "потерянное время", как бесплодная и ненужная жизнь...
    Сэмпл: http://multi-up.com/1086519
    Качество видео: SATRip
    Формат видео: AVI
    Видео:
    1-я серия: 704x384 (1.83:1), 25 fps, ~1560 kbps avg, 0.23 bit/pixel
    2-я серия: 704x384 (1.83:1), 25 fps, ~1497 kbps avg, 0.22 bit/pixel
    Аудио: AC3, 192 кбит/с, 2 ch, 48 КГц
    Формат субтитров: hardsub (неотключаемые)

    MediaInfo

    1-я серия:
    Общее
    Полное имя : D:\A.la.recherche.du.temps.perdu_2011.SATRip\A.la.recherche.du.temps.perdu-1_2011.SATRip.avi
    Формат : AVI
    Формат/Информация : Audio Video Interleave
    Размер файла : 1,38 Гбайт
    Продолжительность : 1 ч. 52 м.
    Общий поток : 1762 Кбит/сек
    Программа кодирования : VirtualDubMod 1.5.10.2 (build 2540/release)
    Библиотека кодирования : VirtualDubMod build 2540/release
    Видео
    Идентификатор : 0
    Формат : MPEG-4 Visual
    Профиль формата : Simple@L3
    Параметр BVOP формата : Нет
    Параметр QPel формата : Нет
    Параметр GMC формата : Без точки перехода
    Параметр матрицы формата : Default (H.263)
    Идентификатор кодека : XVID
    Идентификатор кодека/Подсказка : XviD
    Продолжительность : 1 ч. 52 м.
    Битрейт : 1560 Кбит/сек
    Ширина : 704 пикселя
    Высота : 384 пикселя
    Соотношение сторон : 1,85:1
    Частота кадров : 25,000 кадров/сек
    Цветовое пространство : YUV
    Субдискретизация насыщенности : 4:2:0
    Битовая глубина : 8 бит
    Тип развёртки : Прогрессивная
    Метод сжатия : С потерями
    Бит/(Пиксели*Кадры) : 0.231
    Размер потока : 1,23 Гбайт (89%)
    Библиотека кодирования : XviD 64
    Аудио
    Идентификатор : 1
    Формат : AC-3
    Формат/Информация : Audio Coding 3
    Расширение режима : CM (complete main)
    Параметр Endianness формата : Big
    Идентификатор кодека : 2000
    Продолжительность : 1 ч. 52 м.
    Вид битрейта : Постоянный
    Битрейт : 192 Кбит/сек
    Каналы : 2 канала
    Расположение каналов : Front: L R
    Частота : 48,0 КГц
    Частота кадров : 31,250 кадров/сек (1536 spf)
    Метод сжатия : С потерями
    Размер потока : 154 Мбайт (11%)
    Выравнивание : Разделение по промежуткам
    Продолжительность промежутка : 40 мс. (1,00 видеокадр)
    Время предзагрузки промежутка : 500 мс.
    2-я серия:
    Общее
    Полное имя : D:\A.la.recherche.du.temps.perdu_2011.SATRip\A.la.recherche.du.temps.perdu-2_2011.SATRip.avi
    Формат : AVI
    Формат/Информация : Audio Video Interleave
    Размер файла : 1,41 Гбайт
    Продолжительность : 1 ч. 58 м.
    Общий поток : 1699 Кбит/сек
    Программа кодирования : VirtualDubMod 1.5.10.2 (build 2540/release)
    Библиотека кодирования : VirtualDubMod build 2540/release
    Видео
    Идентификатор : 0
    Формат : MPEG-4 Visual
    Профиль формата : Simple@L3
    Параметр BVOP формата : Нет
    Параметр QPel формата : Нет
    Параметр GMC формата : Без точки перехода
    Параметр матрицы формата : Default (H.263)
    Идентификатор кодека : XVID
    Идентификатор кодека/Подсказка : XviD
    Продолжительность : 1 ч. 58 м.
    Битрейт : 1497 Кбит/сек
    Ширина : 704 пикселя
    Высота : 384 пикселя
    Соотношение сторон : 1,85:1
    Частота кадров : 25,000 кадров/сек
    Цветовое пространство : YUV
    Субдискретизация насыщенности : 4:2:0
    Битовая глубина : 8 бит
    Тип развёртки : Прогрессивная
    Метод сжатия : С потерями
    Бит/(Пиксели*Кадры) : 0.222
    Размер потока : 1,24 Гбайт (88%)
    Библиотека кодирования : XviD 64
    Аудио
    Идентификатор : 1
    Формат : AC-3
    Формат/Информация : Audio Coding 3
    Расширение режима : CM (complete main)
    Параметр Endianness формата : Big
    Идентификатор кодека : 2000
    Продолжительность : 1 ч. 58 м.
    Вид битрейта : Постоянный
    Битрейт : 192 Кбит/сек
    Каналы : 2 канала
    Расположение каналов : Front: L R
    Частота : 48,0 КГц
    Частота кадров : 31,250 кадров/сек (1536 spf)
    Метод сжатия : С потерями
    Размер потока : 163 Мбайт (11%)
    Выравнивание : Разделение по промежуткам
    Продолжительность промежутка : 40 мс. (1,00 видеокадр)
    Время предзагрузки промежутка : 500 мс.

    Скриншот c названием фильма

    Скриншоты

    Скачать .torrent

    Скачать торрент-файл бесплатно и на максимальной скорости!

    Как скачивать? · Что такое торрент? · Рейтинг и ограничения

    !ВНИМАНИЕ!
    Сайт не распространяет и не хранит электронные версии произведений, а занимается лишь лишь предоставлением доступа к создаваемому пользователями каталогу ссылок на торрент-файлы, которые содержат только списки хеш-сумм, убедительная просьба с жалобами обращаться напрямую к пользователю. Файлы для обмена на трекере предоставлены пользователями сайта, и администрация не несёт ответственности за их содержание. Просьба не заливать файлы, защищенные авторскими правами, а также файлы нелегального содержания!


    _________________
    [Профиль] [ЛС]
    Показать сообщения:    
    Ответить на тему

    Текущее время: Сегодня, в 08:24

    Часовой пояс: GMT + 2



    Вы не можете начинать темы
    Вы не можете отвечать на сообщения
    Вы не можете редактировать свои сообщения
    Вы не можете удалять свои сообщения
    Вы не можете голосовать в опросах
    Вы не можете прикреплять файлы к сообщениям
    Вы не можете скачивать файлы