BitTorrentTracker PerecTracker.org
BitTorrentTracker PerecTracker.org
    
Регистрация  ·  Вход
 
 · 
Забыли пароль?

  • Крепкий орешек: Хороший день, чтобы умереть / A Good Day to Die Hard (Джон Мур / John Moore) [2013, США, боевик, триллер, криминал, BDRip-AVC] [Extended] Dub + AVO (Гаврилов) + Original (Eng) + Sub (Rus, Eng)

    Ответить на тему
     
    Автор Сообщение

    rechyn

    Создавать темы 29-Янв-2016 05:03

           

    [Цитировать]

    Крепкий орешек: Хороший день, чтобы умереть / A Good Day to Die Hard
    Страна: США
    Жанр: боевик, триллер, криминал
    Год выпуска: 2013
    Продолжительность: 01:41:11
    Перевод#1: Профессиональный (дублированный)
    Перевод#2: Авторский (одноголосый закадровый), А. Гаврилов
    Cубтитры: русские, английские
    Оригинальная аудиодорожка: английский
    Режиссер: Джон Мур | John Moore
    В ролях: Брюс Уиллис, Джай Кортни, Себастьян Кох, Юлия Снигирь, Радивойе Буквич, Сергей Колесников, Мэри Элизабет Уинстэд, Коул Хаузер, Амори Ноласко, Роман Лукнар
    Описание: Джон МакКлейн прибывает в Москву, чтобы вызволить из тюрьмы своего непредсказуемого сына, но холодная голова и железные мускулы вязнут в паутине российской действительности. Дело, в которое влип МакКлейн-младший, оказывается настолько «опасной трясиной», что отцу и сыну, чтобы выжить и в очередной раз спасти мир, приходится объединить свои усилия, забыв прежние, казалось бы, непреодолимые разногласия...

    Исходник: A Good Day to Die Hard 2013 Extended Cut 1080p Blu-ray Remux AVC DTS-HD MA 7.1 - KRaLiMaRKo
    Качество видео: BDRip-AVC | sample
    Формат видео: MKV
    Видео кодек: x264
    Видео: AVC 1152x624 (1.85:1), 23.976 fps, ~4460 Kbps, 0.26 bit/pixel
    Аудио #1: Russian AC3 6ch 48kHz 448Kbps | Dub
    Аудио #2: Russian AC3 6ch 48kHz 448Kbps | AVO Гаврилов
    Аудио #3: English AC3 6ch 48kHz 448Kbps | Original
    Формат субтитров: softsub (SRT)
    Главы: есть

    MediaInfo | x264

    x264

    --[NoImage] raw [info]: 1152x624p 1:1 @ 24000/1001 fps (cfr)
    --[NoImage] x264 [info]: frame I:901 Avg QP:18.58 size: 80607
    --[NoImage] x264 [info]: frame P:28687 Avg QP:21.23 size: 34715
    --[NoImage] x264 [info]: frame B:115975 Avg QP:21.91 size: 19978
    --[NoImage] x264 [info]: consecutive B-frames: 2.0% 2.3% 5.5% 14.4% 16.8% 36.4% 6.3% 1.5% 2.4% 2.8% 1.9% 1.0% 2.5% 2.4% 0.6% 0.3% 1.1%
    --[NoImage] x264 [info]: kb/s:4460.98
    General
    Complete name : E:\...\A.Good.Day.to.Die.Hard.2013.Extended.BDRip.x264.DD5.1.2xRus.Eng-E76.mkv
    Format : Matroska
    Format version : Version 2
    File size : 4.10 GiB
    Duration : 1h 41mn
    Overall bit rate : 5 808 Kbps
    Movie name : A.Good.Day.to.Die.Hard.2013.Extended.BDRip.x264.DD5.1.2xRus.Eng-E76
    Encoded date : UTC 2014-06-26 02:35:08
    Writing application : mkvmerge v6.5.0 ('Isn't she lovely') built on Oct 20 2013 12:50:05
    Writing library : libebml v1.3.0 + libmatroska v1.4.1
    Video
    ID : 1
    Format : AVC
    Format/Info : Advanced Video Codec
    Format profile : High@L4.1
    Format settings, CABAC : Yes
    Format settings, ReFrames : 10 frames
    Codec ID : V_MPEG4/ISO/AVC
    Bit rate : 4 348 Kbps
    Width : 1 152 pixels
    Height : 624 pixels
    Display aspect ratio : 1.85:1
    Frame rate mode : Variable
    Original frame rate : 23.976 fps
    Color space : YUV
    Chroma subsampling : 4:2:0
    Bit depth : 8 bits
    Scan type : Progressive
    Title : Encode by E76
    Writing library : x264 core 130 r2273kMod b3065e6
    Encoding settings : cabac=1 / ref=10 / deblock=1:-3:-2 / analyse=0x3:0x113 / me=umh / subme=11 / psy=1 / fade_compensate=0.00 / psy_rd=1.10:0.15 / mixed_ref=1 / me_range=64 / chroma_me=1 / trellis=2 / 8x8dct=1 / cqm=0 / deadzone=21,11 / fast_pskip=1 / chroma_qp_offset=-3 / threads=3 / lookahead_threads=1 / sliced_threads=0 / nr=0 / decimate=1 / interlaced=0 / bluray_compat=0 / constrained_intra=0 / bframes=16 / b_pyramid=2 / b_adapt=2 / b_bias=0 / direct=1 / weightb=1 / open_gop=0 / weightp=2 / keyint=240 / keyint_min=23 / scenecut=40 / intra_refresh=0 / rc_lookahead=0 / rc=crf / mbtree=0 / crf=20.8500 / qcomp=0.60 / qpmin=0 / qpmax=69 / qpstep=4 / vbv_maxrate=50000 / vbv_bufsize=62500 / crf_max=0.0 / nal_hrd=none / ip_ratio=1.40 / pb_ratio=1.10 / aq=1:0.90 / zones=137020,145562,q=30
    Language : English
    Default : Yes
    Forced : No
    Matrix coefficients : BT.709
    Audio #1
    ID : 2
    Format : AC-3
    Format/Info : Audio Coding 3
    Mode extension : CM (complete main)
    Format settings, Endianness : Big
    Codec ID : A_AC3
    Duration : 1h 41mn
    Bit rate mode : Constant
    Bit rate : 448 Kbps
    Channel(s) : 6 channels
    Channel positions : Front: L C R, Side: L R, LFE
    Sampling rate : 48.0 KHz
    Bit depth : 16 bits
    Compression mode : Lossy
    Stream size : 324 MiB (8%)
    Title : Dub
    Language : Russian
    Default : Yes
    Forced : No
    Audio #2
    ID : 3
    Format : AC-3
    Format/Info : Audio Coding 3
    Mode extension : CM (complete main)
    Format settings, Endianness : Big
    Codec ID : A_AC3
    Duration : 1h 41mn
    Bit rate mode : Constant
    Bit rate : 448 Kbps
    Channel(s) : 6 channels
    Channel positions : Front: L C R, Side: L R, LFE
    Sampling rate : 48.0 KHz
    Bit depth : 16 bits
    Compression mode : Lossy
    Stream size : 324 MiB (8%)
    Title : AVO Gavrilov
    Language : Russian
    Default : No
    Forced : No
    Audio #3
    ID : 4
    Format : AC-3
    Format/Info : Audio Coding 3
    Mode extension : CM (complete main)
    Format settings, Endianness : Big
    Codec ID : A_AC3
    Duration : 1h 41mn
    Bit rate mode : Constant
    Bit rate : 448 Kbps
    Channel(s) : 6 channels
    Channel positions : Front: L C R, Side: L R, LFE
    Sampling rate : 48.0 KHz
    Bit depth : 16 bits
    Compression mode : Lossy
    Stream size : 324 MiB (8%)
    Title : Original
    Language : English
    Default : No
    Forced : No
    Text #1
    ID : 5
    Format : UTF-8
    Codec ID : S_TEXT/UTF8
    Codec ID/Info : UTF-8 Plain Text
    Title : forced
    Language : Russian
    Default : Yes
    Forced : No
    Text #2
    ID : 6
    Format : UTF-8
    Codec ID : S_TEXT/UTF8
    Codec ID/Info : UTF-8 Plain Text
    Language : Russian
    Default : No
    Forced : No
    Text #3
    ID : 7
    Format : UTF-8
    Codec ID : S_TEXT/UTF8
    Codec ID/Info : UTF-8 Plain Text
    Title : iTunes Russia
    Language : Russian
    Default : No
    Forced : No
    Text #4
    ID : 8
    Format : UTF-8
    Codec ID : S_TEXT/UTF8
    Codec ID/Info : UTF-8 Plain Text
    Language : English
    Default : No
    Forced : No
    Text #5
    ID : 9
    Format : UTF-8
    Codec ID : S_TEXT/UTF8
    Codec ID/Info : UTF-8 Plain Text
    Title : SDH
    Language : English
    Default : No
    Forced : No
    Text #6
    ID : 10
    Format : UTF-8
    Codec ID : S_TEXT/UTF8
    Codec ID/Info : UTF-8 Plain Text
    Title : SDH colored
    Language : English
    Default : No
    Forced : No
    Menu
    00:00:00.000 : en:00:00:00.000
    00:02:45.999 : en:00:02:45.999
    ...
    01:35:24.927 : en:01:35:24.927

    Скриншоты





    vs source
    Скачать .torrent

    Скачать торрент-файл бесплатно и на максимальной скорости!

    Как скачивать? · Что такое торрент? · Рейтинг и ограничения

    !ВНИМАНИЕ!
    Сайт не распространяет и не хранит электронные версии произведений, а занимается лишь лишь предоставлением доступа к создаваемому пользователями каталогу ссылок на торрент-файлы, которые содержат только списки хеш-сумм, убедительная просьба с жалобами обращаться напрямую к пользователю. Файлы для обмена на трекере предоставлены пользователями сайта, и администрация не несёт ответственности за их содержание. Просьба не заливать файлы, защищенные авторскими правами, а также файлы нелегального содержания!


    _________________
    [Профиль] [ЛС]
    Показать сообщения:    
    Ответить на тему

    Текущее время: Сегодня, в 18:21

    Часовой пояс: GMT + 2



    Вы не можете начинать темы
    Вы не можете отвечать на сообщения
    Вы не можете редактировать свои сообщения
    Вы не можете удалять свои сообщения
    Вы не можете голосовать в опросах
    Вы не можете прикреплять файлы к сообщениям
    Вы не можете скачивать файлы