BitTorrentTracker PerecTracker.org
BitTorrentTracker PerecTracker.org
    
Регистрация  ·  Вход
 
 · 
Забыли пароль?

  • Далласский клуб покупателей / Dallas Buyers Club (Жан-Марк Валле / Jean-Marc Vallée) [2013, США, драма, биография, история, BDRip 720p] Dub + AVO (Визгунов) + Sub Rus, Eng + Original Eng

    Ответить на тему
     
    Автор Сообщение

    Flirldrerve

    Создавать темы 29-Янв-2016 00:58

           

    [Цитировать]

    -Далласский клуб покупателей / Dallas Buyers Club
    «Dare to Live»--Страна: США
    Жанр: драма, биография, история
    Год выпуска: 2013
    Продолжительность: 01:56:57-Перевод 1: Профессиональный (дублированный) Лицензия
    Перевод 2: Авторский (одноголосый закадровый) Визгунов-Cубтитры: Русские, Английские
    Оригинальная аудиодорожка: Английская-Режиссер: Жан-Марк Валле / Jean-Marc Vallée-В ролях: Мэттью МакКонахи, Дженнифер Гарнер, Джаред Лето, Стив Зан, Дэнис О’Хэйр, Кевин О. Ранкин, Даллас Робертс, Стеффи Гроут, Джанин Хилл, Гриффин Данн-Описание: Реальная история Рона Вудруфа, техасского электрика, у которого в 1986 году обнаружили СПИД. Тогда врачи отвели ему всего полгода, но он не пожелал смириться со смертным приговором и сумел продлить свою жизнь, принимая нетрадиционные лекарства, а затем наладил подпольный и прибыльный бизнес по продаже их другим больным.---Тип релиза: BDRip 720p
    Контейнер: MKV-Видео: MPEG-4 AVC, 1280x534 (2.40:1), 23.976 fps, ~6496 kbps avg, 0.396 bit/pixel
    Аудио 1: 48 kHz, AC3 Dolby Digital, 3/2 (L,C,R,l,r) + LFE ch, ~384 kbps avg
    Аудио 2: 48 kHz, DTS, 3/2 (L,C,R,l,r) + LFE ch, ~1509 kbps avg
    Аудио 3: 48 kHz, DTS, 3/2 (L,C,R,l,r) + LFE ch, ~1509 kbps avg-

    MediaInfo

    Complete name : E:\РАЗДАЧИ\Dallas Buyers Club (2013) BDRip 720p.mkv
    Format : Matroska
    Format version : Version 2
    File size : 8.08 GiB
    Duration : 1h 56mn
    Overall bit rate : 9 894 Kbps
    Movie name : Dallas Buyers Club (2013) BDRip 720p
    Encoded date : UTC 2016-01-27 09:54:31
    Writing application : mkvmerge v3.0.0 ('Hang up your Hang-Ups') built on Dec 12 2009 15:20:35
    Writing library : libebml v0.7.9 + libmatroska v0.8.1
    Cover : Yes
    Video
    ID : 1
    Format : AVC
    Format/Info : Advanced Video Codec
    Format profile : High@L4.1
    Format settings, CABAC : Yes
    Format settings, ReFrames : 11 frames
    Codec ID : V_MPEG4/ISO/AVC
    Duration : 1h 56mn
    Bit rate : 6 496 Kbps
    Width : 1 280 pixels
    Height : 534 pixels
    Display aspect ratio : 2.40:1
    Frame rate mode : Constant
    Frame rate : 23.976 fps
    Color space : YUV
    Chroma subsampling : 4:2:0
    Bit depth : 8 bits
    Scan type : Progressive
    Bits/(Pixel*Frame) : 0.396
    Stream size : 5.14 GiB (64%)
    Writing library : x264 core 138 r2356 a1d3d17
    Encoding settings : cabac=1 / ref=11 / deblock=1:-3:-3 / analyse=0x3:0x113 / me=umh / subme=10 / psy=1 / psy_rd=1.00:0.05 / mixed_ref=1 / me_range=32 / chroma_me=1 / trellis=2 / 8x8dct=1 / cqm=0 / deadzone=21,11 / fast_pskip=0 / chroma_qp_offset=-2 / threads=18 / lookahead_threads=1 / sliced_threads=0 / nr=0 / decimate=1 / interlaced=0 / bluray_compat=0 / constrained_intra=0 / bframes=6 / b_pyramid=2 / b_adapt=2 / b_bias=0 / direct=3 / weightb=1 / open_gop=0 / weightp=2 / keyint=250 / keyint_min=23 / scenecut=40 / intra_refresh=0 / rc=2pass / mbtree=0 / bitrate=6496 / ratetol=1.0 / qcomp=0.70 / qpmin=0 / qpmax=69 / qpstep=4 / cplxblur=20.0 / qblur=0.5 / ip_ratio=1.40 / pb_ratio=1.30 / aq=2:0.90
    Language : English
    Default : No
    Forced : No
    Audio #1
    ID : 2
    Format : AC-3
    Format/Info : Audio Coding 3
    Mode extension : CM (complete main)
    Format settings, Endianness : Big
    Codec ID : A_AC3
    Duration : 1h 56mn
    Bit rate mode : Constant
    Bit rate : 384 Kbps
    Channel(s) : 6 channels
    Channel positions : Front: L C R, Side: L R, LFE
    Sampling rate : 48.0 KHz
    Bit depth : 16 bits
    Compression mode : Lossy
    Stream size : 321 MiB (4%)
    Title : Дубляж
    Language : Russian
    Default : No
    Forced : No
    Audio #2
    ID : 3
    Format : DTS
    Format/Info : Digital Theater Systems
    Mode : 16
    Format settings, Endianness : Big
    Codec ID : A_DTS
    Duration : 1h 56mn
    Bit rate mode : Constant
    Bit rate : 1 509 Kbps
    Channel(s) : 6 channels
    Channel positions : Front: L C R, Side: L R, LFE
    Sampling rate : 48.0 KHz
    Bit depth : 24 bits
    Compression mode : Lossy
    Stream size : 1.23 GiB (15%)
    Title : Визгунов
    Language : Russian
    Default : Yes
    Forced : No
    Audio #3
    ID : 4
    Format : DTS
    Format/Info : Digital Theater Systems
    Mode : 16
    Format settings, Endianness : Big
    Codec ID : A_DTS
    Duration : 1h 56mn
    Bit rate mode : Constant
    Bit rate : 1 509 Kbps
    Channel(s) : 6 channels
    Channel positions : Front: L C R, Side: L R, LFE
    Sampling rate : 48.0 KHz
    Bit depth : 24 bits
    Compression mode : Lossy
    Stream size : 1.23 GiB (15%)
    Title : Original
    Language : English
    Default : No
    Forced : No
    Text #1
    ID : 5
    Format : UTF-8
    Codec ID : S_TEXT/UTF8
    Codec ID/Info : UTF-8 Plain Text
    Title : Russian
    Language : Russian
    Default : Yes
    Forced : No
    Text #2
    ID : 6
    Format : UTF-8
    Codec ID : S_TEXT/UTF8
    Codec ID/Info : UTF-8 Plain Text
    Title : English
    Language : English
    Default : No
    Forced : No
    Menu
    00:00:00.000 : en:00:00:00.000
    00:06:20.672 : en:00:06:20.672
    00:11:52.879 : en:00:11:52.879
    00:18:41.579 : en:00:18:41.579
    00:24:55.703 : en:00:24:55.703
    00:29:44.282 : en:00:29:44.282
    00:35:15.697 : en:00:35:15.697
    00:41:33.282 : en:00:41:33.282
    00:46:32.873 : en:00:46:32.873
    00:51:49.023 : en:00:51:49.023
    00:55:37.834 : en:00:55:37.834
    01:01:25.974 : en:01:01:25.974
    01:07:16.783 : en:01:07:16.783
    01:12:37.645 : en:01:12:37.645
    01:19:55.249 : en:01:19:55.249
    01:28:25.550 : en:01:28:25.550
    01:36:56.644 : en:01:36:56.644
    01:43:06.639 : en:01:43:06.639
    01:47:59.473 : en:01:47:59.473
    01:52:12.851 : en:01:52:12.851

    Скриншоты

    Скачать .torrent

    Скачать торрент-файл бесплатно и на максимальной скорости!

    Как скачивать? · Что такое торрент? · Рейтинг и ограничения

    !ВНИМАНИЕ!
    Сайт не распространяет и не хранит электронные версии произведений, а занимается лишь лишь предоставлением доступа к создаваемому пользователями каталогу ссылок на торрент-файлы, которые содержат только списки хеш-сумм, убедительная просьба с жалобами обращаться напрямую к пользователю. Файлы для обмена на трекере предоставлены пользователями сайта, и администрация не несёт ответственности за их содержание. Просьба не заливать файлы, защищенные авторскими правами, а также файлы нелегального содержания!


    _________________
    [Профиль] [ЛС]
    Показать сообщения:    
    Ответить на тему

    Текущее время: Сегодня, в 06:10

    Часовой пояс: GMT + 2



    Вы не можете начинать темы
    Вы не можете отвечать на сообщения
    Вы не можете редактировать свои сообщения
    Вы не можете удалять свои сообщения
    Вы не можете голосовать в опросах
    Вы не можете прикреплять файлы к сообщениям
    Вы не можете скачивать файлы