BitTorrentTracker PerecTracker.org
BitTorrentTracker PerecTracker.org
    
Регистрация  ·  Вход
 
 · 
Забыли пароль?

  • Тёмные лабиринты прошлого / Сезон: 1 / Серии: 4 из 4 (Олег Туранский) [2013, драма, триллер, SATRip]

    Ответить на тему
     
    Автор Сообщение

    rechyn

    Создавать темы 28-Янв-2016 23:52

           

    [Цитировать]

    Тёмные лабиринты прошлого
    Год выпуска: 2013
    Производство: Украина, Россия, Star media
    Жанр: драма, триллер
    Продолжительность: 4*00:47:07
    Субтитры: отсутствуют
    Режиссёр: Олег Туранский
    В ролях: Екатерина Варченко, Карина Разумовская, Дмитрий Суржиков, Александр Кобзарь, Дмитрий Тубольцев, Сергей Деревянко, Вера Кобзарь
    Описание: Лиза, поссорившись с мужем, ушла из дому. Только на следующий день его брат нашел золовку в лесу без сознания. Лиза не может вспомнить, кто она. Теперь ей предстоит привыкать к прежней жизни. Муж Борис ей кажется совершенно посторонним человеком, а повседневная работа по дому совсем непривычной. Лизу одолевают то смутные воспоминания, то провалы в памяти. Она начинает подозревать у себя признаки психического расстройства.
    А тем временем на регистратора частной клиники Ирину совершено нападение - девушку спасает случайный прохожий…
    Качество: SATRip, ТВ3
    Реклама: Только значок канала и 16+
    Формат: AVI
    Видео кодек: DivX
    Аудио кодек: MP3
    Видео: 704x400 (1.76:1), 25 fps, DivX Codec 6.8.5/6.9.1 ~1500 kbps avg, 0.21 bit/pixel
    Аудио: 48 kHz, MPEG Layer 3, 2 ch, ~128.00 kbps avg
    Ссылка на предыдущие и альтернативные раздачи
    Сэмпл

    MI

    Общее
    Полное имя : D:\Downloads\Temnye.labirinty.proshlogo.01.avi
    Формат : AVI
    Формат/Информация : Audio Video Interleave
    Размер файла : 552 Мбайт
    Продолжительность : 47 м.
    Общий поток : 1638 Кбит/сек
    Библиотека кодирования : VirtualDub build 32842/release
    Видео
    Идентификатор : 0
    Формат : MPEG-4 Visual
    Параметр BVOP формата : 1
    Параметр QPel формата : Нет
    Параметр GMC формата : Без точки перехода
    Параметр матрицы формата : Default (H.263)
    Режим смешивания : Сжатый битовый поток
    Идентификатор кодека : DX50
    Идентификатор кодека/Подсказка : DivX 5
    Продолжительность : 47 м.
    Битрейт : 1500 Кбит/сек
    Ширина : 704 пикселя
    Высота : 400 пикселей
    Соотношение сторон : 16:9
    Частота кадров : 25,000 кадров/сек
    Цветовое пространство : YUV
    Субдискретизация насыщенности : 4:2:0
    Битовая глубина : 8 бит
    Тип развёртки : Прогрессивная
    Метод сжатия : С потерями
    Бит/(Пиксели*Кадры) : 0.213
    Размер потока : 506 Мбайт (92%)
    Библиотека кодирования : DivX 6.8.5 (UTC 2009-08-20)
    Аудио
    Идентификатор : 1
    Формат : MPEG Audio
    Версия формата : Version 1
    Профиль формата : Layer 3
    Режим : Joint stereo
    Расширение режима : MS Stereo
    Идентификатор кодека : 55
    Идентификатор кодека/Подсказка : MP3
    Продолжительность : 47 м.
    Вид битрейта : Постоянный
    Битрейт : 128 Кбит/сек
    Каналы : 2 канала
    Частота : 48,0 КГц
    Метод сжатия : С потерями
    Размер потока : 43,1 Мбайт (8%)
    Выравнивание : Разделение по промежуткам
    Продолжительность промежутка : 40 мс. (1,00 видеокадр)
    Время предзагрузки промежутка : 500 мс.

    Скриншоты

    Скачать .torrent

    Скачать торрент-файл бесплатно и на максимальной скорости!

    Как скачивать? · Что такое торрент? · Рейтинг и ограничения

    !ВНИМАНИЕ!
    Сайт не распространяет и не хранит электронные версии произведений, а занимается лишь лишь предоставлением доступа к создаваемому пользователями каталогу ссылок на торрент-файлы, которые содержат только списки хеш-сумм, убедительная просьба с жалобами обращаться напрямую к пользователю. Файлы для обмена на трекере предоставлены пользователями сайта, и администрация не несёт ответственности за их содержание. Просьба не заливать файлы, защищенные авторскими правами, а также файлы нелегального содержания!


    _________________
    [Профиль] [ЛС]
    Показать сообщения:    
    Ответить на тему

    Текущее время: Сегодня, в 06:02

    Часовой пояс: GMT + 2



    Вы не можете начинать темы
    Вы не можете отвечать на сообщения
    Вы не можете редактировать свои сообщения
    Вы не можете удалять свои сообщения
    Вы не можете голосовать в опросах
    Вы не можете прикреплять файлы к сообщениям
    Вы не можете скачивать файлы