BitTorrentTracker PerecTracker.org
BitTorrentTracker PerecTracker.org
    
Регистрация  ·  Вход
 
 · 
Забыли пароль?

  • Обучаю игре на гитаре / Серии 1-4 из 4 (Владимир Янощук) [2012, Мелодрама, WEBRip]

    Ответить на тему
     
    Автор Сообщение

    rechyn

    Создавать темы 28-Янв-2016 23:18

           

    [Цитировать]

    Обучаю игре на гитаре-Год выпуска: 2012
    Производство: Россия, STAR MEDIA
    Жанр: Мелодрама
    Продолжительность: 4х~00:44:00-Режиссёр: Владимир Янощук
    В ролях: Валерий Николаев, Алина Сергеева, Илья Глинников, Яна Соболевская, Нодар Джанелидзе, Андрей Кронглевский, Янина Соколова, Анжелика Савченко, Мария Звонарёва, Станислав Боклан, Ирина Мельник, Глеб Сердюков, Сергей Калантай-Описание: Олег Марков – гениальный 40-ка летний хирург собирается покончить с жизнью. От отчаянного поступка его спасает звонок с работы. На кону жизнь 10-ти летнего мальчишки. Олег спасает ребенка. Мальчишка напоминает ему о молодости, упущенных возможностях. Когда то мир был наполнен смыслом. Он играл на гитаре, любил. Далекий 1989 год – студенческие годы и первокурсница Марта. В больших уродливых очках так трогательно влюбленная в него – музыканта со старшего курса. Кто тогда знал, что спустя 10 лет эта невзрачная девчушка перевернет его мир. И уже он – Олег будет готов бросить к ее ногам весь мир. Откажется от семьи. Только вот роковая авария навсегда разлучит их. Возле больничной кровати Олега месяцами останется дежурить жена. Марта исчезнет. Исчезнет навсегда из жизни, но не из сердца. И вот сейчас возле кровати спасенного мальчишки сидит она – Марта, только старше и еще красивее. Олег догадывается - мальчик его сын. Ему становятся ясны причины исчезновения любимой женщины. Они вновь обретают друг - друга, но есть одна страшная тайна. Олег смертельно болен, именно от безысходности болезни, он хотел покончить собой. Марта узнает о болезни. Она уговаривает его оперироваться. После сложной операции Олег видит сон – его сын играет на гитаре. Ту самую песню, которую когда то написала для него девочка в уродливых очках.-Релиз: SarDmitriy
    Реклама: Отсутствует
    Все раздачи сериала
    Семпл-Качество: WEBRip
    Формат: AVI
    Видео кодек: XviD
    Аудио кодек: MP3
    Видео: MPEG4, XviD, 720x400 (16:9), 25.000 fps, ~ 1650 Kbps (0.256 bit/pixel)
    Аудио: MP3, 48.0 KHz, 2 ch, 192 Kbps, CBR

    MI

    General
    Complete name : E:\Обучаю игре на гитаре_2012_WEBRip_SarDmitriy\Обучаю игре на гитаре_01_Seriy_2012_WEBRip_SarDmitriy.avi
    Format : AVI
    Format/Info : Audio Video Interleave
    File size : 596 MiB
    Duration : 40mn 41s
    Overall bit rate : 2 047 Kbps
    Writing application : MEncoder SVN-r33883(20110719-gcc4.5.2)
    Writing library : MPlayer
    Video
    ID : 0
    Format : MPEG-4 Visual
    Format profile : Advanced Simple@L5
    Format settings, BVOP : 2
    Format settings, QPel : No
    Format settings, GMC : No warppoints
    Format settings, Matrix : Default (H.263)
    Codec ID : XVID
    Codec ID/Hint : XviD
    Duration : 40mn 41s
    Bit rate : 1 842 Kbps
    Width : 720 pixels
    Height : 400 pixels
    Display aspect ratio : 16:9
    Frame rate : 25.000 fps
    Color space : YUV
    Chroma subsampling : 4:2:0
    Bit depth : 8 bits
    Scan type : Progressive
    Compression mode : Lossy
    Bits/(Pixel*Frame) : 0.256
    Stream size : 536 MiB (90%)
    Writing library : XviD 1.2.1 (UTC 2008-12-04)
    Audio
    ID : 1
    Format : MPEG Audio
    Format version : Version 1
    Format profile : Layer 3
    Mode : Joint stereo
    Mode extension : MS Stereo
    Codec ID : 55
    Codec ID/Hint : MP3
    Duration : 40mn 41s
    Bit rate mode : Constant
    Bit rate : 192 Kbps
    Channel(s) : 2 channels
    Sampling rate : 48.0 KHz
    Compression mode : Lossy
    Delay relative to video : 40ms
    Stream size : 55.9 MiB (9%)
    Alignment : Aligned on interleaves
    Interleave, duration : 24 ms (0.60 video frame)
    Interleave, preload duration : 504 ms

    Скриншоты

    Скачать .torrent

    Скачать торрент-файл бесплатно и на максимальной скорости!

    Как скачивать? · Что такое торрент? · Рейтинг и ограничения

    !ВНИМАНИЕ!
    Сайт не распространяет и не хранит электронные версии произведений, а занимается лишь лишь предоставлением доступа к создаваемому пользователями каталогу ссылок на торрент-файлы, которые содержат только списки хеш-сумм, убедительная просьба с жалобами обращаться напрямую к пользователю. Файлы для обмена на трекере предоставлены пользователями сайта, и администрация не несёт ответственности за их содержание. Просьба не заливать файлы, защищенные авторскими правами, а также файлы нелегального содержания!


    _________________
    [Профиль] [ЛС]
    Показать сообщения:    
    Ответить на тему

    Текущее время: Сегодня, в 10:35

    Часовой пояс: GMT + 2



    Вы не можете начинать темы
    Вы не можете отвечать на сообщения
    Вы не можете редактировать свои сообщения
    Вы не можете удалять свои сообщения
    Вы не можете голосовать в опросах
    Вы не можете прикреплять файлы к сообщениям
    Вы не можете скачивать файлы