BitTorrentTracker PerecTracker.org
BitTorrentTracker PerecTracker.org
    
Регистрация  ·  Вход
 
 · 
Забыли пароль?

  • Головоломка / Inside Out (Пит Доктер / Pete Docter, Роналдо Дель Кармен / Ronnie Del Carmen) [2015, США, мультипликация, современная сказка, приключения, WEB-DLRip] (Локализованный видеоряд) Dub (BD CEE)

    Ответить на тему
     
    Автор Сообщение

    rechyn

    Создавать темы 28-Янв-2016 20:53

           

    [Цитировать]

    Головоломка / Inside Out
    Страна: США
    Жанр: мультипликация, современная сказка, приключения
    Продолжительность: 01:34:50
    Год выпуска: 2015
    Перевод: Профессиональный (дублированный) BD CEE
    Субтитры: Отсутствуют
    Оригинальная аудиодорожка: нет
    Режиссёры: Пит Доктер / Pete Docter, Роналдо Дель Кармен / Ronnie Del Carmen
    Роли озвучивали: Дайан Лэйн, Эми Пехлер, Кайл Маклахлен, Минди Калинг, Билли Хадер, Филлис Смит, Льюис Блэк, Джесс Харнелл, Тереза Ганзел, Карлос Алазраки, Ларэйн Ньюман, Лори Алан, Пола Паундстоун, Боб Берген, Джон Циган, Дэнни Манн, Шерри Линн, Жан Рэбсон, Микки Макгоун, и др.
    Роли дублировали: Олеся Железняк, Владимир Епифанцев, Максим Виторган, Ксения Собчак, Дмитрий Нагиев, Виктор Григорьев, и др.
    Краткая аннотация: Райли - обычная среднестатистическая одиннадцатилетняя американская школьница. Как и у многих из нас, её поведение определяют пять базовых эмоций: Радость, Печаль, Страх, Гнев и Брезгливость. Эмоции живут в сознании девочки, и каждый день помогают ей справляться с возникающими трудностями по мере их поступления, и руководят её поступками. До поры до времени эмоции живут дружно, но вдруг Райли с родителями переезжает из родного привычного провинциального уюта - в чужой огромный, шумный, многолюдный, безликий серый город... Впервые за всю жизнь, мир обрушился вокруг девочки. Мир обрушился и в её сознании, девочка погружается в уныние... Каждая из эмоций считает, что именно она лучше других знает, что нужно делать в этой непростой ситуации, и в голове у девочки наступает полная неразбериха, и девочка впадает в глубокую депрессию...
    Чтобы наладить жизнь на новом месте, освоиться в новой школе, подружиться с новыми одноклассниками, эмоциям Райли предстоит приложить немало новых усилий...
    Дополнительная информация: Локализованный видеоряд

    Качество: WEB-DLRip
    Формат: AVI
    Video: XviD 50 MPEG-4, 720x400 (16:9) 23.976 fps, ~1671 kbps avg, 0.242 bit/pixel
    Audio: AC-3 Dolby Digital, CBR 448 kbps 6 ch (Front: L C R, Side: L R, LFE) 48.0 KHz

    MediaInfo

    ОбщееПолное имя : V:\Inside_Out_2015_WEB-DLRip_[perectracker.org].aviФормат : AVIФормат/Информация : Audio Video InterleaveРазмер файла : 1,41 ГбайтПродолжительность : 1 ч. 34 м.Общий поток : 2128 Кбит/секПрограмма кодирования : VirtualDubModRus 1.5.10.2 (build 2542/release)Библиотека кодирования : VirtualDubMod build 2542/release
    ВидеоИдентификатор : 0Формат : MPEG-4 VisualПрофиль формата : Advanced Simple@L5Параметр BVOP формата : 2Параметр QPel формата : НетПараметр GMC формата : Без точки переходаПараметр матрицы формата : Default (MPEG)Идентификатор кодека : DX50Идентификатор кодека/Подсказка : DivX 5Продолжительность : 1 ч. 34 м.Битрейт : 1671 Кбит/секШирина : 720 пикселейВысота : 400 пикселейСоотношение сторон : 16:9Частота кадров : 23,976 кадра/секЦветовое пространство : YUVСубдискретизация насыщенности : 4:2:0Битовая глубина : 8 битТип развёртки : ПрогрессивнаяМетод сжатия : С потерямиБит/(Пиксели*Кадры) : 0.242Размер потока : 1,11 Гбайт (79%)Библиотека кодирования : XviD 1.2.1 (UTC 2008-12-04)
    АудиоИдентификатор : 1Формат : AC-3Формат/Информация : Audio Coding 3Расширение режима : CM (complete main)Параметр Endianness формата : BigИдентификатор кодека : 2000Продолжительность : 1 ч. 34 м.Вид битрейта : ПостоянныйБитрейт : 448 Кбит/секКаналы : 6 каналовРасположение каналов : Front: L C R, Side: L R, LFEЧастота : 48,0 КГцБитовая глубина : 16 битМетод сжатия : С потерямиЗадержка видео : 4 мс.Размер потока : 304 Мбайт (21%)Выравнивание : Разделение по промежуткамПродолжительность промежутка : 42 мс. (1,00 видеокадр)Время предзагрузки промежутка : 500 мс.

    Скриншоты / Локализация


    Время раздачи - по возможности.
    Скачать .torrent

    Скачать торрент-файл бесплатно и на максимальной скорости!

    Как скачивать? · Что такое торрент? · Рейтинг и ограничения

    !ВНИМАНИЕ!
    Сайт не распространяет и не хранит электронные версии произведений, а занимается лишь лишь предоставлением доступа к создаваемому пользователями каталогу ссылок на торрент-файлы, которые содержат только списки хеш-сумм, убедительная просьба с жалобами обращаться напрямую к пользователю. Файлы для обмена на трекере предоставлены пользователями сайта, и администрация не несёт ответственности за их содержание. Просьба не заливать файлы, защищенные авторскими правами, а также файлы нелегального содержания!


    _________________
    [Профиль] [ЛС]
    Показать сообщения:    
    Ответить на тему

    Текущее время: Сегодня, в 13:00

    Часовой пояс: GMT + 2



    Вы не можете начинать темы
    Вы не можете отвечать на сообщения
    Вы не можете редактировать свои сообщения
    Вы не можете удалять свои сообщения
    Вы не можете голосовать в опросах
    Вы не можете прикреплять файлы к сообщениям
    Вы не можете скачивать файлы