BitTorrentTracker PerecTracker.org
BitTorrentTracker PerecTracker.org
    
Регистрация  ·  Вход
 
 · 
Забыли пароль?

  • Земля будущего / Tomorrowland (Брэд Бёрд / Brad Bird ) [2015, США, Испания , Фантастика, боевик, детектив, приключения, семейный, WEB-DL, HD (720p)] DUB + Original + sub (rus)

    Ответить на тему
     
    Автор Сообщение

    Flirldrerve

    Создавать темы 28-Янв-2016 16:45

           

    [Цитировать]

    Земля будущего / Tomorrowland
    «Представьте мир, где возможно всё»
    6.399 / 10 6.60 / 10
    -Год выпуска: 2015
    Страна: США, Испания
    Жанр: Фантастика, боевик, детектив, приключения, семейный
    Продолжительность: 02:10:19
    Перевод: Дублированный (iTunes)
    Оригинальная аудиодорожка: Есть
    Cубтитры: Русские форсированные, Русские
    Режиссёр: Брэд Бёрд
    Сценарий: Дэймон Линделоф, Брэд Бёрд, Джефф Дженсен
    Продюсер: Брэд Бёрд, Джеффри Чернов, Дэймон Линделоф
    Оператор: Клаудио Миранда
    Композитор: Майкл Джаккино
    Художник: Скотт Чамблисс, Рэмси Эйвери, Дидак Боно
    Монтаж: Уолтер Мёрч, Крэйг Вуд
    В ролях: Бритт Робертсон, Джордж Клуни, Рэффи Кэссиди, Хью Лори, Тим МакГроу, Кэтрин Хан, Кигэн-Майкл Ки, Кристофер Бауэр, Томас Робинсон, Пирс Гэнон
    Бюджет: $190 000 000
    Сборы в США: $93 436 322
    Сборы в мире: + $115 200 000 = $208 636 322
    Сборы в России: $7 346 020
    Мировая премьера: 9 мая 2015
    Премьера (РФ): 21 мая 2015, «WDSSPR»
    Релиз на DVD: 13 октября 2015, «Уолт Дисней Компани СНГ»
    Релиз на Blu-Ray: 13 октября 2015, «Уолт Дисней Компани СНГ»
    Описание: Когда в руки к молодой девушке, жаждущей новых приключений, попадает загадочный предмет, открывающий доступ в параллельную реальность, она вынуждена обратиться за помощью к циничному гению-изобретателю Фрэнку. Кейси должна убедить бывшего вундеркинда раскрыть ей тайну загадочного места, находящегося вне привычной реальности, известного как Земля будущего, и убедить Фрэнка вернуться туда, откуда его однажды изгнали…-Качество исходника: WEB-DL 720p (HDClub)
    Качество: WEB-DL
    Тип: HD (720p)
    Контейнер: M4V
    Видео: H.264, 1280x580, 2.2:1, 4 077 Kbps, 23.976 fps
    Аудио 1: Русский/Дублированный (iTunes), AAC / 2.0 / 157 Kbps / 48.0 KHz
    Аудио 2: Английский/Оригинальная дорожка , AAC / 2.0 / 157 Kbps / 48.0 KHz
    Аудио 3: Русский/Дублированный (iTunes), AC-3 / 5.1 / 384 Kbps / 48.0 KHz
    Субтитры 1: Русские форсированные
    Субтитры 2: Русские полные
    -

    iTunes Meta Tags

    Sort Name: Tomorrowland
    XID: Apple:vendor_id:2015-596643
    contentID: 990865721
    Copyright: © 2015 Walt Disney Pictures
    Screenwriters: Дэймон Линделоф, Брэд Бёрд, Джефф Дженсен
    Producers: Брэд Бёрд, Джеффри Чернов, Дэймон Линделоф
    Director: Брэд Бёрд
    Cast: Бритт Робертсон, Джордж Клуни, Рэффи Кэссиди, Хью Лори, Тим МакГроу, Кэтрин Хан, Кигэн-Майкл Ки, Кристофер Бауэр, Томас Робинсон, Пирс Гэнон, Диана Конопелько, Станислав Концевич, Анна Хасанова, Валерий Кухарешин, Виталий Такс
    Studio: Walt Disney Pictures
    Rating: 9
    Long Description: Когда в руки к молодой девушке, жаждущей новых приключений, попадает загадочный предмет, открывающий доступ в параллельную реальность, она вынуждена обратиться за помощью к циничному гению-изобретателю Фрэнку. Кейси должна убедить бывшего вундеркинда раскрыть ей тайну загадочного места, находящегося вне привычной реальности, известного как Земля будущего, и убедить Фрэнка вернуться туда, откуда его однажды изгнали...
    Description: Когда в руки к молодой девушке, жаждущей новых приключений, попадает загадочный предмет, открывающий доступ в параллельную реальность, она вынуждена обратиться за помощью к циничному гению-изобретателю Фрэнку. Кейси должна убедить бывшего вундеркинда раскрыть ей тайну загадочного места, находящегося вне привычной реальности, известного как Земля будущего, и убедить Фрэнка вернуться туда, откуда его однажды изгнали...
    Release Date: 2015-05-09T08:00:00Z
    Genre: Sci-Fi & Fantasy
    Artist: Brad Bird
    Name: Tomorrowland

    MediaInfo

    General
    Complete name : /Users/imac/HandBrake/Tomorrowland.720p.WEB-DL.m4v
    Format : MPEG-4
    Codec ID : M4V
    File size : 4.35 GiB
    Duration : 2h 10mn
    Overall bit rate mode : Variable
    Overall bit rate : 4 783 Kbps
    Movie name : Tomorrowland
    Performer : Brad Bird
    Director : Брэд Бёрд
    Actor : Бритт Робертсон / Джордж Клуни / Рэффи Кэссиди / Хью Лори / Тим МакГроу / Кэтрин Хан / Кигэн-Майкл Ки / Кристофер Бауэр / Томас Робинсон / Пирс Гэнон / Диана Конопелько / Станислав Концевич / Анна Хасанова / Валерий Кухарешин / Виталий Такс
    Screenplay by : Дэймон Линделоф / Брэд Бёрд / Джефф Дженсен
    Producer : Брэд Бёрд / Джеффри Чернов / Дэймон Линделоф
    Production studio : Walt Disney Pictures
    Genre : Sci-Fi & Fantasy
    ContentType : Short Film
    Description : Когда в руки к молодой девушке, жаждущей новых приключений, попадает загадочный предмет, открывающий доступ в параллельную реальность, она вынуждена обратиться за помощью к циничному гению-изобретателю Фрэнку. Кейси должна убедить бывшего вундеркинда раскрыть ей тайну загадочного места, находящегося вне привычной реальности, известного как Земля будущего, и убедить Фрэнка вернуться туда, откуда его однажды изгнали...
    Recorded date : UTC 2015-05-09 08:00:00
    Encoded date : UTC 2015-09-22 09:39:22
    Tagged date : UTC 2015-09-22 09:46:54
    Copyright : © 2015 Walt Disney Pictures
    Cover : Yes
    Rating : None
    Title/Sort : Tomorrowland
    LongDescription : Когда в руки к молодой девушке, жаждущей новых приключений, попадает загадочный предмет, открывающий доступ в параллельную реальность, она вынуждена обратиться за помощью к циничному гению-изобретателю Фрэнку. Кейси должна убедить бывшего вундеркинда раскрыть ей тайну загадочного места, находящегося вне привычной реальности, известного как Земля будущего, и убедить Фрэнка вернуться туда, откуда его однажды изгнали...
    HDVideo : Yes
    AppleStoreCatalogID : 990865721
    Vendor : Apple:vendor_id:2015-596643
    ContentRating : mpaa|PG|200|
    Video #1
    ID : 1
    Format : AVC
    Format/Info : Advanced Video Codec
    Format profile : High@L3.1
    Format settings, CABAC : No
    Format settings, ReFrames : 2 frames
    Format settings, GOP : M=2, N=90
    Codec ID : avc1
    Codec ID/Info : Advanced Video Coding
    Duration : 2h 10mn
    Bit rate : 4 077 Kbps
    Width : 1 280 pixels
    Height : 580 pixels
    Display aspect ratio : 2.2:1
    Frame rate mode : Constant
    Frame rate : 23.976 fps
    Color space : YUV
    Chroma subsampling : 4:2:0
    Bit depth : 8 bits
    Scan type : Progressive
    Bits/(Pixel*Frame) : 0.229
    Stream size : 3.71 GiB (85%)
    Title : Main Program
    Language : English
    Encoded date : UTC 2015-09-22 09:39:22
    Tagged date : UTC 2015-09-22 09:39:28
    Color range : Limited
    Color primaries : BT.709
    Transfer characteristics : BT.709
    Matrix coefficients : BT.709
    Video #2
    ID : 8
    Format : JPEG
    Codec ID : jpeg
    Duration : 2h 10mn
    Bit rate mode : Variable
    Bit rate : 526 bps
    Width : 640 pixels
    Height : 290 pixels
    Display aspect ratio : 2.2:1
    Frame rate mode : Variable
    Frame rate : 0.002 fps
    Minimum frame rate : 0.001 fps
    Maximum frame rate : 0.004 fps
    Color space : YUV
    Chroma subsampling : 4:2:0
    Bit depth : 8 bits
    Compression mode : Lossy
    Bits/(Pixel*Frame) : 1.417
    Stream size : 481 KiB (0%)
    Language : English
    Encoded date : UTC 2015-09-22 09:40:13
    Tagged date : UTC 2015-09-22 09:40:13
    Audio #1
    ID : 2
    Format : AAC
    Format/Info : Advanced Audio Codec
    Format profile : LC
    Codec ID : 40
    Duration : 2h 10mn
    Bit rate mode : Variable
    Bit rate : 157 Kbps
    Maximum bit rate : 227 Kbps
    Channel(s) : 2 channels
    Channel positions : Front: L R
    Sampling rate : 48.0 KHz
    Compression mode : Lossy
    Stream size : 146 MiB (3%)
    Title : Russian Stereo
    Language : Russian
    Encoded date : UTC 2015-09-22 09:39:22
    Tagged date : UTC 2015-09-22 09:40:10
    Audio #2
    ID : 3
    Format : AAC
    Format/Info : Advanced Audio Codec
    Format profile : LC
    Codec ID : 40
    Duration : 2h 10mn
    Bit rate mode : Variable
    Bit rate : 157 Kbps
    Maximum bit rate : 242 Kbps
    Channel(s) : 2 channels
    Channel positions : Front: L R
    Sampling rate : 48.0 KHz
    Compression mode : Lossy
    Stream size : 146 MiB (3%)
    Title : English Stereo
    Language : English
    Encoded date : UTC 2015-09-22 09:39:22
    Tagged date : UTC 2015-09-22 09:40:10
    Audio #3
    ID : 4
    Format : AC-3
    Format/Info : Audio Coding 3
    Mode extension : CM (complete main)
    Format settings, Endianness : Big
    Codec ID : ac-3
    Duration : 2h 10mn
    Bit rate mode : Constant
    Bit rate : 384 Kbps
    Channel(s) : 6 channels
    Channel positions : Front: L C R, Side: L R, LFE
    Sampling rate : 48.0 KHz
    Bit depth : 16 bits
    Compression mode : Lossy
    Stream size : 358 MiB (8%)
    Title : Russian DD 5.1
    Language : Russian
    Encoded date : UTC 2015-09-22 09:39:22
    Tagged date : UTC 2015-09-22 09:40:10
    Text #1
    ID : 5
    Format : Timed Text
    Muxing mode : sbtl
    Codec ID : tx3g
    Duration : 47mn 33s
    Bit rate mode : Variable
    Bit rate : 1 bps
    Stream size : 204 Bytes (0%)
    Title : Russian forced
    Language : Russian
    Encoded date : UTC 2015-09-22 09:39:22
    Tagged date : UTC 2015-09-22 09:39:33
    Text #2
    ID : 6
    Format : Timed Text
    Muxing mode : sbtl
    Codec ID : tx3g
    Duration : 1h 59mn
    Bit rate mode : Variable
    Bit rate : 84 bps
    Stream size : 73.6 KiB (0%)
    Title : Russian full
    Language : Russian
    Encoded date : UTC 2015-09-22 09:39:22
    Tagged date : UTC 2015-09-22 09:40:06
    Menu #1
    00:00:00.000 : 1
    00:16:12.000 : 2
    00:21:56.000 : 3
    00:28:52.000 : 4
    00:37:37.000 : 5
    00:46:35.000 : 6
    00:55:00.000 : 7
    01:11:47.000 : 8
    01:19:18.000 : 9
    01:26:44.000 : 10
    01:30:57.000 : 11
    01:38:05.000 : 12
    01:49:50.000 : 13
    01:56:11.000 : 14
    02:01:26.000 : 15
    Menu #2
    ID : 7
    Codec ID : text
    Duration : 2h 10mn
    Language : English
    Encoded date : UTC 2015-09-22 09:40:10
    Tagged date : UTC 2015-09-22 09:40:10
    00:00:00.000 : 1
    00:16:12.000 : 2
    00:21:56.000 : 3
    00:28:52.000 : 4
    00:37:37.000 : 5
    00:46:35.000 : 6
    00:55:00.000 : 7
    01:11:47.000 : 8
    01:19:18.000 : 9
    01:26:44.000 : 10
    01:30:57.000 : 11
    01:38:05.000 : 12
    01:49:50.000 : 13
    01:56:11.000 : 14
    02:01:26.000 : 15
    Bit rate mode : VBR

    Скриншоты

    -

    Релиз подготовлен для просмотра на Apple TV, iPad, iPhone, iPod Touch.
    Для просмотра данного релиза на компьютере с ОС Windows рекомендуется использовать VLC media player
    Скачать .torrent

    Скачать торрент-файл бесплатно и на максимальной скорости!

    Как скачивать? · Что такое торрент? · Рейтинг и ограничения

    !ВНИМАНИЕ!
    Сайт не распространяет и не хранит электронные версии произведений, а занимается лишь лишь предоставлением доступа к создаваемому пользователями каталогу ссылок на торрент-файлы, которые содержат только списки хеш-сумм, убедительная просьба с жалобами обращаться напрямую к пользователю. Файлы для обмена на трекере предоставлены пользователями сайта, и администрация не несёт ответственности за их содержание. Просьба не заливать файлы, защищенные авторскими правами, а также файлы нелегального содержания!


    _________________
    [Профиль] [ЛС]
    Показать сообщения:    
    Ответить на тему

    Текущее время: Сегодня, в 19:34

    Часовой пояс: GMT + 2



    Вы не можете начинать темы
    Вы не можете отвечать на сообщения
    Вы не можете редактировать свои сообщения
    Вы не можете удалять свои сообщения
    Вы не можете голосовать в опросах
    Вы не можете прикреплять файлы к сообщениям
    Вы не можете скачивать файлы