Register  ·  Log in
Forgot password?

  • Медсестра / Nurse (Дуглас Арниокоски / Douglas Aarniokoski) [2013, США, триллер, ужасы, BDRip] Dub (iTunes)

    Reply to topic
    Author Message


    Post 28-Jan-2016 17:45



    Медсестра / Nurse
    Страна: США
    Жанр: триллер, ужасы
    Год выпуска: 2013
    Продолжительность: 01:23:54
    Перевод: Профессиональный (дублированный) iTunes
    Cубтитры: нет
    Режиссер: Дуглас Арниокоски / Douglas Aarniokoski
    В ролях: Пас де ла Уэрта, Катрина Боуден, Корбин Блю, Джадд Нельсон, Борис Коджо, Адам Хершман, Ниси Нэш, Мартин Донован
    Описание: Днём она — примерная медсестра, которой люди доверяют свою жизнь. А ночью она использует собственную сексуальность, соблазняя людей, чтобы затем убить их с особой жестокостью… Крови становится все больше, и её коллега начинает свое расследование, но кажется, что подозрениям никто не готов поверить…
    Доп. информация:
    Качество видео: BDRip | Nurse.3D.2013.Blu-Ray.Remux.1080p
    Формат видео: AVI
    Видео: 720x304 (2.37:1), 23.976 fps, XviD build 73 ~2094 kbps avg, 0.40 bit/pixel
    Аудио: 48 kHz, AC3 Dolby Digital, 3/2 (L,C,R,l,r) + LFE ch, ~384 kbps


    Complete name : C:\Users\User\Desktop\RuTracker\Nurse.2013.BDRip.Dub_by_LBS.avi
    Format : AVI
    Format/Info : Audio Video Interleave
    File size : 1.46 GiB
    Duration : 1h 23mn
    Overall bit rate : 2 488 Kbps
    Director : Last Boy Scout
    Writing application : VirtualDubMod | || (build 2550/release)
    Copyright : 28.01.2016
    Comment : BDRip Dub (iTunes)
    ID : 0
    Format : MPEG-4 Visual
    Format profile : Advanced Simple@L5
    Format settings, BVOP : 1
    Format settings, QPel : No
    Format settings, GMC : No warppoints
    Format settings, Matrix : Custom
    Codec ID : XVID
    Codec ID/Hint : XviD
    Duration : 1h 23mn
    Bit rate : 2 095 Kbps
    Width : 720 pixels
    Height : 304 pixels
    Display aspect ratio : 2.35:1
    Frame rate : 23.976 fps
    Color space : YUV
    Chroma subsampling : 4:2:0
    Bit depth : 8 bits
    Scan type : Progressive
    Compression mode : Lossy
    Bits/(Pixel*Frame) : 0.399
    Stream size : 1.23 GiB (84%)
    Writing library : XviD 73
    ID : 1
    Format : AC-3
    Format/Info : Audio Coding 3
    Mode extension : CM (complete main)
    Format settings, Endianness : Big
    Codec ID : 2000
    Duration : 1h 23mn
    Bit rate mode : Constant
    Bit rate : 384 Kbps
    Channel(s) : 6 channels
    Channel positions : Front: L C R, Side: L R, LFE
    Sampling rate : 48.0 KHz
    Bit depth : 16 bits
    Compression mode : Lossy
    Stream size : 230 MiB (15%)
    Alignment : Split accross interleaves
    Interleave, duration : 42 ms (1.00 video frame)
    Interleave, preload duration : 500 ms

    Скриншот с названием фильма


    Download .torrent

    Download free and at maximum speed!

    How to Download? · What is a torrent? · Ratings and Limitations

    The site does not extend and does not store electronic(digital) versions of products, and only gives access to a reference catalogue created by users on torrent-files which contain only lists of the hash-sums, the earnest entreaty, with complaints(abuse) to access directly to the user. Files for an exchange on tracker are given by users of a site, and the administration does not bear the responsibility for their maintenance. The request to not fill in the files protected by copyrights, and also files of the illegal maintenance!

    [Profile] [PM]
    Display posts from previous:    
    Reply to topic

    The time now is: Today 13:58

    All times are GMT + 3 Hours

    You cannot post new topics in this forum
    You cannot reply to topics in this forum
    You cannot edit your posts in this forum
    You cannot delete your posts in this forum
    You cannot vote in polls in this forum
    You cannot attach files in this forum
    You cannot download files in this forum