BitTorrentTracker PerecTracker.org
BitTorrentTracker PerecTracker.org
    
Регистрация  ·  Вход
 
 · 
Забыли пароль?

  • Третий лишний 2 / Ted 2 (Сет МакФарлейн / Seth MacFarlane ) [2015, США, Комедия, WEB-DL, HD (720p)] DUB + Original

    Ответить на тему
     
    Автор Сообщение

    Flirldrerve

    Создавать темы 28-Янв-2016 12:35

           

    [Цитировать]

    Третий лишний 2 / Ted 2
    «Плюшевый беспредельщик возвращается»
    6.095 / 10 6.60 / 10
    -Год выпуска: 2015
    Страна: США
    Жанр: Комедия
    Продолжительность: 01:52:43
    Перевод: Дублированный (iTunes)
    Оригинальная аудиодорожка: Есть
    Режиссёр: Сет МакФарлейн
    Сценарий: Сет МакФарлейн, Алек Салкин, Уэллесли Уайлд
    Продюсер: Джейсон Кларк, Джон Джейкобс, Сет МакФарлейн
    Оператор: Майкл Баррет
    Композитор: Уолтер Мерфи
    Художник: Стивен Дж. Лайнуивер, Питер Борк, Брайан Фелти
    Монтаж: Джефф Фриман
    В ролях: Марк Уолберг, Сет МакФарлейн, Аманда Сайфред, Джованни Рибизи, Джон Слэттери, Морган Фриман, Джессика Барт, Сэм Дж. Джонс, Патрик Варбертон, Майкл Дорн
    Бюджет: $68 000 000
    Сборы в США: $81 284 830
    Сборы в мире: + $129 658 338 = $210 943 168
    Сборы в России: $6 554 360
    Мировая премьера: 25 июня 2015
    Премьера (РФ): 25 июня 2015, «UPI»
    Описание: Плюшевый беспредельщик продолжает сводить с ума чопорную интеллигенцию. На этот раз говорящий медвежонок с большим эго и его длинноногая блондинка решили завести ребёнка. Там, где не постаралась природа, на помощь приходят звёздные доноры, городские сумасшедшие и верный друг Джонни. Он только что расстался с Лори и готов к новым авантюрам. Третий здесь совсем не лишний.-Качество исходника: BDRip 720p (HDClub)
    Качество: WEB-DL
    Тип: HD (720p)
    Контейнер: M4V
    Видео: H.264, 1280x532, 2.40:1, 4 071 Kbps, 23.976 fps
    Аудио 1: Русский/Дублированный (iTunes), AAC / 2.0 / 156 Kbps / 48.0 KHz
    Аудио 2: Английский/Оригинальная дорожка , AAC / 2.0 / 155 Kbps / 48.0 KHz
    Аудио 3: Русский/Дублированный (iTunes), AC-3 / 5.1 / 384 Kbps / 48.0 KHz
    -

    iTunes Meta Tags

    Sort Name: Ted 2
    XID: Apple:vendor_id:2015-731691
    contentID: 991414010
    Copyright: © 2015 Universal Studios. All Rights Reserved.
    Screenwriters: Сет МакФарлейн, Алек Салкин, Уэллесли Уайлд
    Producers: Джейсон Кларк, Джон Джейкобс, Сет МакФарлейн
    Director: Сет МакФарлейн
    Cast: Марк Уолберг, Сет МакФарлейн, Аманда Сайфред, Джованни Рибизи, Джон Слэттери, Морган Фриман, Джессика Барт, Сэм Дж. Джонс, Патрик Варбертон, Майкл Дорн, Сергей Быстрицкий, Константин Карасик, Мария Иващенко, Иван Калинин, Андрей Градов
    Studio: Universal Pictures
    Rating: 131
    Long Description: Плюшевый беспредельщик продолжает сводить с ума чопорную интеллигенцию. На этот раз говорящий медвежонок с большим эго и его длинноногая блондинка решили завести ребёнка. Там, где не постаралась природа, на помощь приходят звёздные доноры, городские сумасшедшие и верный друг Джонни. Он только что расстался с Лори и готов к новым авантюрам. Третий здесь совсем не лишний.
    Description: Плюшевый беспредельщик продолжает сводить с ума чопорную интеллигенцию. На этот раз говорящий медвежонок с большим эго и его длинноногая блондинка решили завести ребёнка.
    Release Date: 2015-06-25T08:00:00Z
    Genre: Comedy
    Artist: Seth MacFarlane
    Name: Ted 2

    MediaInfo

    General
    Complete name : /Users/imac/HandBrake/Ted .2.WEB-DL.720p.m4v
    Format : MPEG-4
    Codec ID : M4V
    File size : 3.76 GiB
    Duration : 1h 52mn
    Overall bit rate mode : Variable
    Overall bit rate : 4 773 Kbps
    Movie name : Ted 2
    Performer : Seth MacFarlane
    Director : Сет МакФарлейн
    Actor : Марк Уолберг / Сет МакФарлейн / Аманда Сайфред / Джованни Рибизи / Джон Слэттери / Морган Фриман / Джессика Барт / Сэм Дж. Джонс / Патрик Варбертон / Майкл Дорн / Сергей Быстрицкий / Константин Карасик / Мария Иващенко / Иван Калинин / Андрей Градов
    Screenplay by : Сет МакФарлейн / Алек Салкин / Уэллесли Уайлд
    Producer : Джейсон Кларк / Джон Джейкобс / Сет МакФарлейн
    Production studio : Universal Pictures
    Genre : Comedy
    ContentType : Short Film
    Description : Плюшевый беспредельщик продолжает сводить с ума чопорную интеллигенцию. На этот раз говорящий медвежонок с большим эго и его длинноногая блондинка решили завести ребёнка.
    Recorded date : UTC 2015-06-25 08:00:00
    Encoded date : UTC 2015-09-25 14:46:33
    Tagged date : UTC 2015-09-25 14:47:04
    Copyright : © 2015 Universal Studios. All Rights Reserved.
    Cover : Yes
    Rating : None
    Title/Sort : Ted 2
    LongDescription : Плюшевый беспредельщик продолжает сводить с ума чопорную интеллигенцию. На этот раз говорящий медвежонок с большим эго и его длинноногая блондинка решили завести ребёнка. Там, где не постаралась природа, на помощь приходят звёздные доноры, городские сумасшедшие и верный друг Джонни. Он только что расстался с Лори и готов к новым авантюрам. Третий здесь совсем не лишний.
    HDVideo : Yes
    AppleStoreCatalogID : 991414010
    Vendor : Apple:vendor_id:2015-731691
    ContentRating : uk-movie|15|350|
    Video #1
    ID : 1
    Format : AVC
    Format/Info : Advanced Video Codec
    Format profile : Main@L3.1
    Format settings, CABAC : No
    Format settings, ReFrames : 2 frames
    Format settings, GOP : M=2, N=90
    Codec ID : avc1
    Codec ID/Info : Advanced Video Coding
    Duration : 1h 52mn
    Bit rate : 4 071 Kbps
    Width : 1 280 pixels
    Height : 532 pixels
    Display aspect ratio : 2.40:1
    Frame rate mode : Constant
    Frame rate : 23.976 fps
    Color space : YUV
    Chroma subsampling : 4:2:0
    Bit depth : 8 bits
    Scan type : Progressive
    Bits/(Pixel*Frame) : 0.249
    Stream size : 3.21 GiB (85%)
    Title : Main Program
    Language : English
    Encoded date : UTC 2015-09-25 14:46:33
    Tagged date : UTC 2015-09-25 14:46:43
    Color range : Limited
    Color primaries : BT.709
    Transfer characteristics : BT.709
    Matrix coefficients : BT.709
    Video #2
    ID : 6
    Format : JPEG
    Codec ID : jpeg
    Duration : 1h 52mn
    Bit rate mode : Variable
    Bit rate : 1 215 bps
    Width : 640 pixels
    Height : 266 pixels
    Display aspect ratio : 2.40:1
    Frame rate mode : Variable
    Frame rate : 0.003 fps
    Minimum frame rate : 0.002 fps
    Maximum frame rate : 0.006 fps
    Color space : YUV
    Chroma subsampling : 4:2:0
    Bit depth : 8 bits
    Compression mode : Lossy
    Bits/(Pixel*Frame) : 2.379
    Stream size : 989 KiB (0%)
    Language : English
    Encoded date : UTC 2015-09-25 14:46:47
    Tagged date : UTC 2015-09-25 14:46:47
    Audio #1
    ID : 2
    Format : AAC
    Format/Info : Advanced Audio Codec
    Format profile : LC
    Codec ID : 40
    Duration : 1h 52mn
    Bit rate mode : Variable
    Bit rate : 156 Kbps
    Maximum bit rate : 235 Kbps
    Channel(s) : 2 channels
    Channel positions : Front: L R
    Sampling rate : 48.0 KHz
    Compression mode : Lossy
    Stream size : 126 MiB (3%)
    Title : Russian Stereo
    Language : Russian
    Encoded date : UTC 2015-09-25 14:46:33
    Tagged date : UTC 2015-09-25 14:46:41
    Audio #2
    ID : 3
    Format : AAC
    Format/Info : Advanced Audio Codec
    Format profile : LC
    Codec ID : 40
    Duration : 1h 52mn
    Bit rate mode : Variable
    Bit rate : 155 Kbps
    Maximum bit rate : 250 Kbps
    Channel(s) : 2 channels
    Channel positions : Front: L R
    Sampling rate : 48.0 KHz
    Compression mode : Lossy
    Stream size : 125 MiB (3%)
    Title : English Stereo
    Language : English
    Encoded date : UTC 2015-09-25 14:46:33
    Tagged date : UTC 2015-09-25 14:46:41
    Audio #3
    ID : 4
    Format : AC-3
    Format/Info : Audio Coding 3
    Mode extension : CM (complete main)
    Format settings, Endianness : Big
    Codec ID : ac-3
    Duration : 1h 52mn
    Bit rate mode : Constant
    Bit rate : 384 Kbps
    Channel(s) : 6 channels
    Channel positions : Front: L C R, Side: L R, LFE
    Sampling rate : 48.0 KHz
    Bit depth : 16 bits
    Compression mode : Lossy
    Stream size : 310 MiB (8%)
    Title : Russian DD 5.1
    Language : Russian
    Encoded date : UTC 2015-09-25 14:46:33
    Tagged date : UTC 2015-09-25 14:46:41
    Menu #1
    00:00:00.000 : глава 1
    00:07:18.000 : глава 2
    00:14:49.000 : глава 3
    00:19:15.000 : глава 4
    00:27:35.000 : глава 5
    00:34:19.000 : глава 6
    00:42:46.000 : глава 7
    00:47:59.000 : глава 8
    00:54:29.000 : глава 9
    00:58:47.000 : глава 10
    01:04:08.000 : глава 11
    01:09:51.000 : глава 12
    01:12:25.000 : глава 13
    01:15:19.000 : глава 14
    01:21:40.000 : глава 15
    01:26:38.000 : глава 16
    01:31:13.000 : глава 17
    01:36:46.000 : глава 18
    01:41:49.000 : глава 19
    01:45:42.000 : глава 20
    Menu #2
    ID : 5
    Codec ID : text
    Duration : 1h 52mn
    Language : English
    Encoded date : UTC 2015-09-25 14:46:43
    Tagged date : UTC 2015-09-25 14:46:43
    00:00:00.000 : глава 1
    00:07:18.000 : глава 2
    00:14:49.000 : глава 3
    00:19:15.000 : глава 4
    00:27:35.000 : глава 5
    00:34:19.000 : глава 6
    00:42:46.000 : глава 7
    00:47:59.000 : глава 8
    00:54:29.000 : глава 9
    00:58:47.000 : глава 10
    01:04:08.000 : глава 11
    01:09:51.000 : глава 12
    01:12:25.000 : глава 13
    01:15:19.000 : глава 14
    01:21:40.000 : глава 15
    01:26:38.000 : глава 16
    01:31:13.000 : глава 17
    01:36:46.000 : глава 18
    01:41:49.000 : глава 19
    01:45:42.000 : глава 20
    Bit rate mode : VBR

    Скриншоты

    -

    Релиз подготовлен для просмотра на Apple TV, iPad, iPhone, iPod Touch.
    Для просмотра данного релиза на компьютере с ОС Windows рекомендуется использовать VLC media player
    Скачать .torrent

    Скачать торрент-файл бесплатно и на максимальной скорости!

    Как скачивать? · Что такое торрент? · Рейтинг и ограничения

    !ВНИМАНИЕ!
    Сайт не распространяет и не хранит электронные версии произведений, а занимается лишь лишь предоставлением доступа к создаваемому пользователями каталогу ссылок на торрент-файлы, которые содержат только списки хеш-сумм, убедительная просьба с жалобами обращаться напрямую к пользователю. Файлы для обмена на трекере предоставлены пользователями сайта, и администрация не несёт ответственности за их содержание. Просьба не заливать файлы, защищенные авторскими правами, а также файлы нелегального содержания!


    _________________
    [Профиль] [ЛС]
    Показать сообщения:    
    Ответить на тему

    Текущее время: Сегодня, в 13:53

    Часовой пояс: GMT + 2



    Вы не можете начинать темы
    Вы не можете отвечать на сообщения
    Вы не можете редактировать свои сообщения
    Вы не можете удалять свои сообщения
    Вы не можете голосовать в опросах
    Вы не можете прикреплять файлы к сообщениям
    Вы не можете скачивать файлы