BitTorrentTracker PerecTracker.org
BitTorrentTracker PerecTracker.org
    
Регистрация  ·  Вход
 
 · 
Забыли пароль?

  • Джесси Cтоун: Тайны Парадиза / Jesse Stone: Lost in Paradise (Роберт Хармон / Robert Harmon) [2015, США, Драма, Криминал, WEB-DLRip] MVO

    Ответить на тему
     
    Автор Сообщение

    rechyn

    Создавать темы 28-Янв-2016 04:25

           

    [Цитировать]

    -Джесси Cтоун: Тайны Парадиза / Jesse Stone: Lost in Paradise
    «Dare to Live»--Страна: США
    Жанр: Драма, Криминал
    Год выпуска: 2015
    Продолжительность: 01:29:00-Перевод: Профессиональный (многоголосый закадровый)-Cубтитры: нет
    Оригинальная аудиодорожка: нет-Режиссер: Роберт Хармон / Robert Harmon-В ролях: Том Селлек, Кол Саддаф, Глория Рубен, Лесли Хоуп, Уильям Сэдлер, Амелия Роуз Блэйр, Алекс Картер, Маккензи Фой, Ал Сапиенца, Керри Смит-Описание: Детектив Джесси Стоун идет по следу наемного убийцы, оставляющего за собой горы трупов и бесследно исчезающего после выполнения контракта. Но это далеко не единственная забота полицейского. В частности, ему предстоит вникать в жизнь сбившихся с пути подростков своего родного Бостона.---Качество видео: WEB-DLRip
    Формат видео: AVI-Видео: XviD, 720x400 (16:9), 23.976 fps, ~2000 kbps avg, 0.29 bit/pixel
    Аудио: 48 kHz, AC3 Dolby Digital, 2/0 (L,R) ch, ~192 kbps-

    MediaInfo

    Complete name : E:\РАЗДАЧИ\Jesse Stone Lost in Paradise (2015) WEB-DLRip.avi
    Format : AVI
    Format/Info : Audio Video Interleave
    File size : 1.38 GiB
    Duration : 1h 29mn
    Overall bit rate : 2 225 Kbps
    Writing application : VirtualDubMod 1.5.10.3 | www.virtualdub-fr.org || (build 2550/release)
    Writing library : VirtualDub build 32842/release
    Video
    ID : 0
    Format : MPEG-4 Visual
    Format profile : Advanced Simple@L5
    Format settings, BVOP : 1
    Format settings, QPel : No
    Format settings, GMC : No warppoints
    Format settings, Matrix : Custom
    Codec ID : XVID
    Codec ID/Hint : XviD
    Duration : 1h 29mn
    Bit rate : 2 024 Kbps
    Width : 720 pixels
    Height : 400 pixels
    Display aspect ratio : 16:9
    Frame rate : 23.976 fps
    Color space : YUV
    Chroma subsampling : 4:2:0
    Bit depth : 8 bits
    Scan type : Progressive
    Compression mode : Lossy
    Bits/(Pixel*Frame) : 0.293
    Stream size : 1.26 GiB (91%)
    Writing library : XviD 73
    Audio
    ID : 1
    Format : AC-3
    Format/Info : Audio Coding 3
    Mode extension : CM (complete main)
    Format settings, Endianness : Big
    Codec ID : 2000
    Duration : 1h 29mn
    Bit rate mode : Constant
    Bit rate : 192 Kbps
    Channel(s) : 2 channels
    Channel positions : Front: L R
    Sampling rate : 48.0 KHz
    Bit depth : 16 bits
    Compression mode : Lossy
    Stream size : 122 MiB (9%)
    Alignment : Split accross interleaves
    Interleave, duration : 42 ms (1.00 video frame)
    Interleave, preload duration : 500 ms

    Скриншот c названием фильма

    Скриншоты

    Скачать .torrent

    Скачать торрент-файл бесплатно и на максимальной скорости!

    Как скачивать? · Что такое торрент? · Рейтинг и ограничения

    !ВНИМАНИЕ!
    Сайт не распространяет и не хранит электронные версии произведений, а занимается лишь лишь предоставлением доступа к создаваемому пользователями каталогу ссылок на торрент-файлы, которые содержат только списки хеш-сумм, убедительная просьба с жалобами обращаться напрямую к пользователю. Файлы для обмена на трекере предоставлены пользователями сайта, и администрация не несёт ответственности за их содержание. Просьба не заливать файлы, защищенные авторскими правами, а также файлы нелегального содержания!


    _________________
    [Профиль] [ЛС]
    Показать сообщения:    
    Ответить на тему

    Текущее время: Сегодня, в 17:51

    Часовой пояс: GMT + 2



    Вы не можете начинать темы
    Вы не можете отвечать на сообщения
    Вы не можете редактировать свои сообщения
    Вы не можете удалять свои сообщения
    Вы не можете голосовать в опросах
    Вы не можете прикреплять файлы к сообщениям
    Вы не можете скачивать файлы