BitTorrentTracker PerecTracker.org
BitTorrentTracker PerecTracker.org
    
Регистрация  ·  Вход
 
 · 
Забыли пароль?

  • Лука / Излечить страх (Александр Пархоменко) [2013 г., Украина, Беларусь, Исторический, WEBRip]

    Ответить на тему
     
    Автор Сообщение

    rechyn

    Создавать темы 28-Янв-2016 00:20

           

    [Цитировать]

    Лука / Излечить страх
    Страна: Украина, Беларусь
    Жанр: Исторический
    Год выпуска: 2013
    Продолжительность: 01:47:10
    Перевод: Не требуется
    Cубтитры: нет
    Оригинальная аудиодорожка: русский
    Режиссер: А. Пархоменко
    В ролях: Виталий Безруков, Андрей Саминин, Екатерина Гусева, Виктория Малекторович, Алексей Шевченков, Александр Яцко, Владимир Гостюхин, Иван Мацкевич, Александр Числов
    Описание: В основе сюжета картины лежит драматичная судьба великого хирурга и священнослужителя — В. Ф. Войно-Ясенецкого (Святителя Луки). Он мог выставлять свои картины в лучших галереях мира и пачкать руки лишь красками, а стал «мужицким врачом», архиепископом и жертвой политических репрессий. Талантливый врач, человек глубокой веры, он успешно врачевал и душу и тело людей; в самые безбожные времена не поступался своей совестью. Тысячи людей обязаны ему жизнью, но спасти единственную женщину, которую он любил больше жизни, так и не смог…
    Доп. информация: Рип скачан с рутора у пользователя Железный дровосек.
    Сэмпл: https://www.sendspace.com/file/jq5fb1
    Качество видео: WEBRip
    Формат видео: AVI
    Видео: 790 Кбит/сек, 640*272 (2,35:1), 25,000 кадров/сек, XviD
    Аудио: Русский, 128 Кбит/сек, 48,0 КГц, 2 канала, MP3

    MediaInfo

    ОбщееПолное имя : E:\Видео\Художественные фильмы\Лука (2013).aviФормат : AVIФормат/Информация : Audio Video InterleaveРазмер файла : 711 МбайтПродолжительность : 1 ч. 47 м.Общий поток : 928 Кбит/секПрограмма кодирования : VirtualDubMod 1.5.10.3 | www.virtualdub-fr.org || (build 2550/release)Библиотека кодирования : VirtualDubMod build 2550/release
    ВидеоИдентификатор : 0Формат : MPEG-4 VisualПрофиль формата : Advanced Simple@L5Параметр BVOP формата : 1Параметр QPel формата : НетПараметр GMC формата : Без точки переходаПараметр матрицы формата : ВыборочнаяИдентификатор кодека : XVIDИдентификатор кодека/Подсказка : XviDПродолжительность : 1 ч. 47 м.Битрейт : 790 Кбит/секШирина : 640 пикселейВысота : 272 пикселяСоотношение сторон : 2,35:1Частота кадров : 25,000 кадров/секЦветовое пространство : YUVСубдискретизация насыщенности : 4:2:0Битовая глубина : 8 битТип развёртки : ПрогрессивнаяМетод сжатия : С потерямиБит/(Пиксели*Кадры) : 0.182Размер потока : 606 Мбайт (85%)Библиотека кодирования : XviD 73
    АудиоИдентификатор : 1Формат : MPEG AudioВерсия формата : Version 1Профиль формата : Layer 3Идентификатор кодека : 55Идентификатор кодека/Подсказка : MP3Продолжительность : 1 ч. 47 м.Вид битрейта : ПостоянныйБитрейт : 128 Кбит/секКаналы : 2 каналаЧастота : 48,0 КГцМетод сжатия : С потерямиРазмер потока : 98,1 Мбайт (14%)Выравнивание : Соединение по промежуткамПродолжительность промежутка : 40 мс. (1,00 видеокадр)Время предзагрузки промежутка : 504 мс.Библиотека кодирования : LAME3.99rНастройки программы : -m s -V 4 -q 2 -lowpass 17 -b 128

    Скриншот c названием фильма

    Скриншоты

    Скачать .torrent

    Скачать торрент-файл бесплатно и на максимальной скорости!

    Как скачивать? · Что такое торрент? · Рейтинг и ограничения

    !ВНИМАНИЕ!
    Сайт не распространяет и не хранит электронные версии произведений, а занимается лишь лишь предоставлением доступа к создаваемому пользователями каталогу ссылок на торрент-файлы, которые содержат только списки хеш-сумм, убедительная просьба с жалобами обращаться напрямую к пользователю. Файлы для обмена на трекере предоставлены пользователями сайта, и администрация не несёт ответственности за их содержание. Просьба не заливать файлы, защищенные авторскими правами, а также файлы нелегального содержания!


    _________________
    [Профиль] [ЛС]
    Показать сообщения:    
    Ответить на тему

    Текущее время: Сегодня, в 04:13

    Часовой пояс: GMT + 2



    Вы не можете начинать темы
    Вы не можете отвечать на сообщения
    Вы не можете редактировать свои сообщения
    Вы не можете удалять свои сообщения
    Вы не можете голосовать в опросах
    Вы не можете прикреплять файлы к сообщениям
    Вы не можете скачивать файлы