Register  ·  Log in
Forgot password?

  • Любовь по-взрослому / This Is 40 (Джадд Апатоу / Judd Apatow) [2012, США, трагикомедия, BDRip] [Расширенная версия / Unrated Cut] Dub (R5) + Rus Subs

    Reply to topic
    Author Message


    Post 28-Jan-2016 01:20



    Любовь по-взросломуThis Is 40-Год выпуска: 2012
    Страна: США
    Жанр: трагикомедия-Продолжительность: 02:17:04
    Перевод: Профессиональный (полное дублирование) R5 (со вставками оригинальной речи)
    Режиссёр: Джадд Апатоу / Judd Apatow
    В ролях: Пол Радд, Лесли Манн, Мод Апатоу, Айрис Апатоу, Джон Литгоу, Меган Фокс, Крис О'Дауд, Джейсон Сигел, Мелисса МакКарти, Грэм Паркер, Альберт Брукс, Энни Мамоло, Роберт Смигель, Лина Данем, Шарлин Йи, Тим Бегли, Райан Ли, Джоанн Барон, Билл Хейдер и др.-Описание: Спин-офф комедии «Немножко беременна» 2007 года. Взгляд на жизнь Пита и Дебби спустя несколько лет после событий первого фильма: к сложностям брака прибавляются финансовые проблемы.- -Sample-Качество: BDRip (источник: This Is 40 2012 Unrated 1080p Blu-ray Remux AVC DTS-HD MA 5.1 - KRaLiMaRKo)
    Формат: AVI
    Видео: XviD, 720x304 (2.35:1), 23.976 fps, ~ 1322 kbps
    Аудио: Russian 48.0 KHz, AC3 , 2 channels, 192 Kbps |R5|
    Субтитры: русские (на расширенные моменты)-

    О релизе

    Рип, синхронизация аудио и работа над субтитрами: whip93
    Перевод расширенных моментов был набит с любительского дубляжа. В него были внесены правки, т.к. перевод этого дубляжа оставляет желать лучшего. - отличия между театральной и расширенной версиями.


    Complete name : D:\Фильмы\This Is 40 2012 Unrated whip93\This.Is.40.2012.Unrated.BDRip.XviD.AC3.-whip93.avi
    Format : AVI
    Format/Info : Audio Video Interleave
    File size : 1.46 GiB
    Duration : 2h 17mn
    Overall bit rate : 1 524 Kbps
    Movie name : Любовь по-взрослому | This Is 40 (2012)
    Director : whip93
    Genre : drama-comedy
    Writing application : VirtualDubMod | || (build 2550/release)
    Writing library : VirtualDubMod build 2550/release
    Copyright : whip93
    ID : 0
    Format : MPEG-4 Visual
    Format profile : Advanced Simple@L5
    Format settings, BVOP : 1
    Format settings, QPel : No
    Format settings, GMC : No warppoints
    Format settings, Matrix : Custom
    Codec ID : XVID
    Codec ID/Hint : XviD
    Duration : 2h 17mn
    Bit rate : 1 322 Kbps
    Width : 720 pixels
    Height : 304 pixels
    Display aspect ratio : 2.35:1
    Frame rate : 23.976 fps
    Color space : YUV
    Chroma subsampling : 4:2:0
    Bit depth : 8 bits
    Scan type : Progressive
    Compression mode : Lossy
    Bits/(Pixel*Frame) : 0.252
    Stream size : 1.27 GiB (87%)
    Writing library : XviD 73
    ID : 1
    Format : AC-3
    Format/Info : Audio Coding 3
    Mode extension : CM (complete main)
    Format settings, Endianness : Big
    Codec ID : 2000
    Duration : 2h 17mn
    Bit rate mode : Constant
    Bit rate : 192 Kbps
    Channel(s) : 2 channels
    Channel positions : Front: L R
    Sampling rate : 48.0 KHz
    Bit depth : 16 bits
    Compression mode : Lossy
    Stream size : 188 MiB (13%)
    Alignment : Split accross interleaves
    Interleave, duration : 42 ms (1.00 video frame)
    Interleave, preload duration : 500 ms


    Download .torrent

    Download free and at maximum speed!

    How to Download? · What is a torrent? · Ratings and Limitations

    The site does not extend and does not store electronic(digital) versions of products, and only gives access to a reference catalogue created by users on torrent-files which contain only lists of the hash-sums, the earnest entreaty, with complaints(abuse) to access directly to the user. Files for an exchange on tracker are given by users of a site, and the administration does not bear the responsibility for their maintenance. The request to not fill in the files protected by copyrights, and also files of the illegal maintenance!

    [Profile] [PM]
    Display posts from previous:    
    Reply to topic

    The time now is: Today 00:23

    All times are GMT + 3 Hours

    You cannot post new topics in this forum
    You cannot reply to topics in this forum
    You cannot edit your posts in this forum
    You cannot delete your posts in this forum
    You cannot vote in polls in this forum
    You cannot attach files in this forum
    You cannot download files in this forum