BitTorrentTracker PerecTracker.org
BitTorrentTracker PerecTracker.org
    
Регистрация  ·  Вход
 
 · 
Забыли пароль?

  • Любовь по-взрослому / This Is 40 (Джадд Апатоу / Judd Apatow) [2012, США, трагикомедия, BDRip] [Расширенная версия / Unrated Cut] Dub (R5) + Rus Subs

    Ответить на тему
     
    Автор Сообщение

    rechyn

    Создавать темы 28-Янв-2016 00:20

           

    [Цитировать]

    Любовь по-взросломуThis Is 40-Год выпуска: 2012
    Страна: США
    Жанр: трагикомедия-Продолжительность: 02:17:04
    Перевод: Профессиональный (полное дублирование) R5 (со вставками оригинальной речи)
    Режиссёр: Джадд Апатоу / Judd Apatow
    В ролях: Пол Радд, Лесли Манн, Мод Апатоу, Айрис Апатоу, Джон Литгоу, Меган Фокс, Крис О'Дауд, Джейсон Сигел, Мелисса МакКарти, Грэм Паркер, Альберт Брукс, Энни Мамоло, Роберт Смигель, Лина Данем, Шарлин Йи, Тим Бегли, Райан Ли, Джоанн Барон, Билл Хейдер и др.-Описание: Спин-офф комедии «Немножко беременна» 2007 года. Взгляд на жизнь Пита и Дебби спустя несколько лет после событий первого фильма: к сложностям брака прибавляются финансовые проблемы.- -Sample-Качество: BDRip (источник: This Is 40 2012 Unrated 1080p Blu-ray Remux AVC DTS-HD MA 5.1 - KRaLiMaRKo)
    Формат: AVI
    Видео: XviD, 720x304 (2.35:1), 23.976 fps, ~ 1322 kbps
    Аудио: Russian 48.0 KHz, AC3 , 2 channels, 192 Kbps |R5|
    Субтитры: русские (на расширенные моменты)-

    О релизе

    Рип, синхронизация аудио и работа над субтитрами: whip93
    Перевод расширенных моментов был набит с любительского дубляжа. В него были внесены правки, т.к. перевод этого дубляжа оставляет желать лучшего.
    http://www.movie-censorship.com/report.php?ID=207098 - отличия между театральной и расширенной версиями.

    MediaInfo

    General
    Complete name : D:\Фильмы\This Is 40 2012 Unrated whip93\This.Is.40.2012.Unrated.BDRip.XviD.AC3.-whip93.avi
    Format : AVI
    Format/Info : Audio Video Interleave
    File size : 1.46 GiB
    Duration : 2h 17mn
    Overall bit rate : 1 524 Kbps
    Movie name : Любовь по-взрослому | This Is 40 (2012)
    Director : whip93
    Genre : drama-comedy
    Writing application : VirtualDubMod 1.5.10.3 | www.virtualdub-fr.org || (build 2550/release)
    Writing library : VirtualDubMod build 2550/release
    Copyright : whip93
    Video
    ID : 0
    Format : MPEG-4 Visual
    Format profile : Advanced Simple@L5
    Format settings, BVOP : 1
    Format settings, QPel : No
    Format settings, GMC : No warppoints
    Format settings, Matrix : Custom
    Codec ID : XVID
    Codec ID/Hint : XviD
    Duration : 2h 17mn
    Bit rate : 1 322 Kbps
    Width : 720 pixels
    Height : 304 pixels
    Display aspect ratio : 2.35:1
    Frame rate : 23.976 fps
    Color space : YUV
    Chroma subsampling : 4:2:0
    Bit depth : 8 bits
    Scan type : Progressive
    Compression mode : Lossy
    Bits/(Pixel*Frame) : 0.252
    Stream size : 1.27 GiB (87%)
    Writing library : XviD 73
    Audio
    ID : 1
    Format : AC-3
    Format/Info : Audio Coding 3
    Mode extension : CM (complete main)
    Format settings, Endianness : Big
    Codec ID : 2000
    Duration : 2h 17mn
    Bit rate mode : Constant
    Bit rate : 192 Kbps
    Channel(s) : 2 channels
    Channel positions : Front: L R
    Sampling rate : 48.0 KHz
    Bit depth : 16 bits
    Compression mode : Lossy
    Stream size : 188 MiB (13%)
    Alignment : Split accross interleaves
    Interleave, duration : 42 ms (1.00 video frame)
    Interleave, preload duration : 500 ms

    Скриншоты

    -
    Скачать .torrent

    Скачать торрент-файл бесплатно и на максимальной скорости!

    Как скачивать? · Что такое торрент? · Рейтинг и ограничения

    !ВНИМАНИЕ!
    Сайт не распространяет и не хранит электронные версии произведений, а занимается лишь лишь предоставлением доступа к создаваемому пользователями каталогу ссылок на торрент-файлы, которые содержат только списки хеш-сумм, убедительная просьба с жалобами обращаться напрямую к пользователю. Файлы для обмена на трекере предоставлены пользователями сайта, и администрация не несёт ответственности за их содержание. Просьба не заливать файлы, защищенные авторскими правами, а также файлы нелегального содержания!


    _________________
    [Профиль] [ЛС]
    Показать сообщения:    
    Ответить на тему

    Текущее время: Сегодня, в 20:43

    Часовой пояс: GMT + 2



    Вы не можете начинать темы
    Вы не можете отвечать на сообщения
    Вы не можете редактировать свои сообщения
    Вы не можете удалять свои сообщения
    Вы не можете голосовать в опросах
    Вы не можете прикреплять файлы к сообщениям
    Вы не можете скачивать файлы