BitTorrentTracker PerecTracker.org
BitTorrentTracker PerecTracker.org
    
Регистрация  ·  Вход
 
 · 
Забыли пароль?

  • 5-я волна / The 5th Wave (Дж. Блэйксон / J. Blakeson) [2016, США, фантастика, боевик, триллер, приключения, TeleSynch] Dub

    Ответить на тему
     
    Автор Сообщение

    Light

    Создавать темы 27-Янв-2016 03:49

           

    [Цитировать]

    5-я волна / The 5th Wave--Страна: США, Columbia Pictures, GK Films, Living Films, LStar Capital, Material Pictures
    Жанр: фантастика, боевик, триллер, приключения
    Год выпуска: 2016
    Продолжительность: 01:45:29
    Перевод: Профессиональный (дублированный)
    Cубтитры: нет-Режиссер: Дж. Блэйксон / J. Blakeson-В ролях: Клои Грэйс Моретц, Ник Дж. Робинсон, Рон Ливингстон, Мэгги Сифф, Алекс Роу, Мария Белло, Майка Монро, Лив Шрайбер, Закари Артур, Тони Револори-Описание: Первая волна оставила за собой мглу. От второй успели убежать только самые везучие. Но едва ли можно назвать везучими тех, кто уцелел после третьей. А четвертая волна стерла все человеческие законы, взамен же установила свой, один-единственный: хочешь жить — не верь никому. И вот уже накатывает пятая волна…-Доп. информация:

    Дата мировой премьеры: 14 января 2016
    Дата премьеры в России: 21 января 2016, «WDSSPR»
    -Сэмпл: http://multi-up.com/1086034-Качество видео: TeleSynch
    Формат видео: AVI
    Видео: 720x352 (2.05:1), 30 fps, XviD build 50 ~1714 kbps avg, 0.23 bit/pixel
    Аудио: 44.100 kHz, MPEG Layer 3, 2 ch, ~128.00 kbps avg

    MediaInfo

    Общее
    Полное имя : G:\Torrent2\5.V0lna.2016.D.TS.1400Mb.avi
    Формат : AVI
    Формат/Информация : Audio Video Interleave
    Размер файла : 1,37 Гбайт
    Продолжительность : 1 ч. 45 м.
    Общий поток : 1854 Кбит/сек
    Программа кодирования : VirtualDubMod 1.5.10.2 (build 2540/release)
    Библиотека кодирования : VirtualDubMod build 2540/release
    Видео
    Идентификатор : 0
    Формат : MPEG-4 Visual
    Профиль формата : Advanced Simple@L5
    Параметр BVOP формата : 2
    Параметр QPel формата : Нет
    Параметр GMC формата : Без точки перехода
    Параметр матрицы формата : Default (MPEG)
    Идентификатор кодека : XVID
    Идентификатор кодека/Подсказка : XviD
    Продолжительность : 1 ч. 45 м.
    Битрейт : 1715 Кбит/сек
    Ширина : 720 пикселей
    Высота : 352 пикселя
    Соотношение сторон : 2,045
    Частота кадров : 30,000 кадров/сек
    Цветовое пространство : YUV
    Субдискретизация насыщенности : 4:2:0
    Битовая глубина : 8 бит
    Тип развёртки : Прогрессивная
    Метод сжатия : С потерями
    Бит/(Пиксели*Кадры) : 0.225
    Размер потока : 1,26 Гбайт (92%)
    Библиотека кодирования : XviD 1.2.1 (UTC 2008-12-04)
    Аудио
    Идентификатор : 1
    Формат : MPEG Audio
    Версия формата : Version 1
    Профиль формата : Layer 3
    Идентификатор кодека : 55
    Идентификатор кодека/Подсказка : MP3
    Продолжительность : 1 ч. 45 м.
    Вид битрейта : Постоянный
    Битрейт : 128 Кбит/сек
    Каналы : 2 канала
    Частота : 44,1 КГц
    Метод сжатия : С потерями
    Размер потока : 96,6 Мбайт (7%)
    Выравнивание : Разделение по промежуткам
    Продолжительность промежутка : 33 мс. (1,00 видеокадр)
    Время предзагрузки промежутка : 500 мс.

    Скриншот c названием фильма

    Скриншоты

    Скачать .torrent

    Скачать торрент-файл бесплатно и на максимальной скорости!

    Как скачивать? · Что такое торрент? · Рейтинг и ограничения

    !ВНИМАНИЕ!
    Сайт не распространяет и не хранит электронные версии произведений, а занимается лишь лишь предоставлением доступа к создаваемому пользователями каталогу ссылок на торрент-файлы, которые содержат только списки хеш-сумм, убедительная просьба с жалобами обращаться напрямую к пользователю. Файлы для обмена на трекере предоставлены пользователями сайта, и администрация не несёт ответственности за их содержание. Просьба не заливать файлы, защищенные авторскими правами, а также файлы нелегального содержания!


    _________________
    [Профиль] [ЛС]
    Показать сообщения:    
    Ответить на тему

    Текущее время: Сегодня, в 12:09

    Часовой пояс: GMT + 2



    Вы не можете начинать темы
    Вы не можете отвечать на сообщения
    Вы не можете редактировать свои сообщения
    Вы не можете удалять свои сообщения
    Вы не можете голосовать в опросах
    Вы не можете прикреплять файлы к сообщениям
    Вы не можете скачивать файлы