BitTorrentTracker PerecTracker.org
BitTorrentTracker PerecTracker.org
    
Регистрация  ·  Вход
 
 · 
Забыли пароль?

  • Конец тура / The End of the Tour (Джеймс Понсольдт / James Ponsoldt) [2015, США, драма, BDRip-AVC] MVO + Sub (Rus, Eng)

    Ответить на тему
     
    Автор Сообщение

    rechyn

    Создавать темы 27-Янв-2016 03:49

           

    [Цитировать]

    Конец тура
    The End of the Tour
    «Imagine the greatest conversation you've ever had»

    Страна: США
    Жанр: драма
    Год выпуска: 2015
    Продолжительность: 01:46:10
    Перевод: Профессиональный (многоголосый, закадровый) [Лицензия iTunes]
    Cубтитры: русские (форсированные thx. potroks), русские (unknown), русские (Notabenoid), английские (Full + SDH)
    Оригинальная аудиодорожка: нет
    Режиссер: Джеймс Понсольдт / James Ponsoldt
    В ролях: Анна Кламски, Джесси Айзенберг, Джейсон Сигел, Мэми Гаммер, Джоан Кьюсак, Рон Ливингстон, Мики Самнер, Бекки Энн Бэйкер, Пуннавит Кой, Ноэль Флетчер, Челси Энн Лоуренс, Джейвон Андерсон
    Описание:
    Вскоре после публикации романа «Бесконечная шутка» (позднее вошедшим в список ста лучших романов XX века по мнению Time) писатель Дэвид Фостер Уоллес отправляется в поездку с журналистом Rolling Stone Дэвидом Липски, готовящем о нем статью. За пять дней между ними возникла некая доверительная связь, позволившая каждому из них поделиться своими сокровенными мыслями и желаниями. Так или иначе, интервью никогда не было опубликовано - аудиокассеты отправились в шкаф Липски, а сами герои так больше и не встретились.
    Автор рипа: Stalker oK
    Сэмпл
    Качество видео: BDRip-AVC [kinozal / Blu-ray Remux / 1080p]
    Формат видео: MKV
    Видео кодек: AVC
    Аудио кодек: AC3
    Видео: 1516 Кбит/сек, 912x380 (2.40:1), 23,976 кадр/сек, AVC
    Аудио: русский, 384 Кбит/сек, 48 КГц, 16 бит, 5.1, AC3
    Навигация по главам: есть

    MediaInfo

    Общее
    Уникальный идентификатор : 230905293601467418690721172322035647952 (0xADB6BDEEE47685688D093C05348F45D0)
    Полное имя : M:\Rips3\The End of the Tour\The.End.of.the.Tour.2015.BDRip-AVC.MVO.1.45Gb.stalkerok.new-team.mkv
    Формат : Matroska
    Версия формата : Version 4 / Version 2
    Размер файла : 1,41 Гбайт
    Продолжительность : 1 ч. 46 м.
    Общий поток : 1896 Кбит/сек
    Название фильма : The End of the Tour (2015) (New-Team) (Rip by Stalker oK)
    Дата кодирования : UTC 2016-01-26 16:32:14
    Программа кодирования : mkvmerge v8.6.1 ('Flying') 64bit
    Библиотека кодирования : libebml v1.3.3 + libmatroska v1.4.4
    Видео
    Идентификатор : 1
    Формат : AVC
    Формат/Информация : Advanced Video Codec
    Профиль формата : High@L4.1
    Параметр CABAC формата : Да
    Параметр ReFrames формата : 14 кадров
    Идентификатор кодека : V_MPEG4/ISO/AVC
    Продолжительность : 1 ч. 46 м.
    Битрейт : 1516 Кбит/сек
    Ширина : 912 пикселей
    Высота : 380 пикселей
    Соотношение сторон : 2,40:1
    Режим частоты кадров : Постоянный
    Частота кадров : 23,976 (24000/1001) кадра/сек
    Цветовое пространство : YUV
    Субдискретизация насыщенности : 4:2:0
    Битовая глубина : 8 бит
    Тип развёртки : Прогрессивная
    Бит/(Пиксели*Кадры) : 0.182
    Размер потока : 1,12 Гбайт (80%)
    Заголовок : The End of the Tour (2015) (New-Team) (Rip by Stalker oK)
    Библиотека кодирования : x264 core 148 r2665kMod a01e339
    Настройки программы : cabac=1 / ref=14 / deblock=1:-3:-3 / analyse=0x3:0x133 / me=umh / subme=11 / psy=1 / fade_compensate=0.00 / psy_rd=1.00:0.10 / mixed_ref=1 / me_range=48 / chroma_me=1 / trellis=2 / 8x8dct=1 / cqm=0 / deadzone=21,11 / fast_pskip=0 / chroma_qp_offset=-3 / threads=12 / lookahead_threads=2 / sliced_threads=0 / nr=0 / decimate=0 / interlaced=0 / bluray_compat=0 / constrained_intra=0 / fgo=0 / bframes=15 / b_pyramid=2 / b_adapt=2 / b_bias=0 / direct=3 / weightb=1 / open_gop=0 / weightp=2 / keyint=240 / keyint_min=23 / scenecut=40 / intra_refresh=0 / rc_lookahead=60 / rc=2pass / mbtree=0 / bitrate=1516 / ratetol=1.0 / qcomp=0.70 / qpmin=0 / qpmax=69 / qpstep=4 / cplxblur=20.0 / qblur=0.5 / vbv_maxrate=50000 / vbv_bufsize=62500 / nal_hrd=none / filler=0 / ip_ratio=1.40 / pb_ratio=1.30 / aq=3:0.95
    Default : Да
    Forced : Нет
    Аудио
    Идентификатор : 2
    Формат : AC-3
    Формат/Информация : Audio Coding 3
    Расширение режима : CM (complete main)
    Параметр Endianness формата : Big
    Идентификатор кодека : A_AC3
    Продолжительность : 1 ч. 46 м.
    Вид битрейта : Постоянный
    Битрейт : 384 Кбит/сек
    Каналы : 6 каналов
    Расположение каналов : Front: L C R, Side: L R, LFE
    Частота : 48,0 КГц
    Частота кадров : 31,250 кадров/сек (1536 spf)
    Метод сжатия : С потерями
    Размер потока : 292 Мбайт (20%)
    Заголовок : iTunes
    Язык : Russian
    Default : Да
    Forced : Нет
    Текст #1
    Идентификатор : 3
    Формат : UTF-8
    Идентификатор кодека : S_TEXT/UTF8
    Идентификатор кодека/Информация : UTF-8 Plain Text
    Продолжительность : 1 ч. 40 м.
    Битрейт : 0 бит/сек
    Count of elements : 11
    Размер потока : 496 байт (0%)
    Заголовок : Forced [potroks]
    Язык : Russian
    Default : Да
    Forced : Нет
    Текст #2
    Идентификатор : 4
    Формат : UTF-8
    Идентификатор кодека : S_TEXT/UTF8
    Идентификатор кодека/Информация : UTF-8 Plain Text
    Продолжительность : 1 ч. 40 м.
    Битрейт : 140 бит/сек
    Count of elements : 1730
    Размер потока : 103 Кбайт (0%)
    Заголовок : unknown
    Язык : Russian
    Default : Нет
    Forced : Нет
    Текст #3
    Идентификатор : 5
    Формат : UTF-8
    Идентификатор кодека : S_TEXT/UTF8
    Идентификатор кодека/Информация : UTF-8 Plain Text
    Продолжительность : 1 ч. 40 м.
    Битрейт : 149 бит/сек
    Count of elements : 1824
    Размер потока : 110 Кбайт (0%)
    Заголовок : Notabenoid
    Язык : Russian
    Default : Нет
    Forced : Нет
    Текст #4
    Идентификатор : 6
    Формат : UTF-8
    Идентификатор кодека : S_TEXT/UTF8
    Идентификатор кодека/Информация : UTF-8 Plain Text
    Продолжительность : 1 ч. 40 м.
    Битрейт : 93 бит/сек
    Count of elements : 1779
    Размер потока : 68,9 Кбайт (0%)
    Заголовок : Full
    Язык : English
    Default : Нет
    Forced : Нет
    Текст #5
    Идентификатор : 7
    Формат : UTF-8
    Идентификатор кодека : S_TEXT/UTF8
    Идентификатор кодека/Информация : UTF-8 Plain Text
    Продолжительность : 1 ч. 40 м.
    Битрейт : 98 бит/сек
    Count of elements : 1886
    Размер потока : 72,8 Кбайт (0%)
    Заголовок : SDH
    Язык : English
    Default : Нет
    Forced : Нет
    Меню
    00:00:00.000 : en:Chapter 1
    00:03:21.743 : en:Chapter 2
    00:12:07.894 : en:Chapter 3
    00:19:51.190 : en:Chapter 4
    00:32:19.146 : en:Chapter 5
    00:38:18.046 : en:Chapter 6
    00:43:48.668 : en:Chapter 7
    00:48:33.911 : en:Chapter 8
    00:53:36.672 : en:Chapter 9
    00:59:31.276 : en:Chapter 10
    01:07:33.841 : en:Chapter 11
    01:14:04.398 : en:Chapter 12
    01:21:59.331 : en:Chapter 13
    01:25:07.728 : en:Chapter 14
    01:32:02.517 : en:Chapter 15
    01:38:22.522 : en:Chapter 16

    Скриншоты

    Скачать .torrent

    Скачать торрент-файл бесплатно и на максимальной скорости!

    Как скачивать? · Что такое торрент? · Рейтинг и ограничения

    !ВНИМАНИЕ!
    Сайт не распространяет и не хранит электронные версии произведений, а занимается лишь лишь предоставлением доступа к создаваемому пользователями каталогу ссылок на торрент-файлы, которые содержат только списки хеш-сумм, убедительная просьба с жалобами обращаться напрямую к пользователю. Файлы для обмена на трекере предоставлены пользователями сайта, и администрация не несёт ответственности за их содержание. Просьба не заливать файлы, защищенные авторскими правами, а также файлы нелегального содержания!


    _________________
    [Профиль] [ЛС]
    Показать сообщения:    
    Ответить на тему

    Текущее время: Сегодня, в 15:39

    Часовой пояс: GMT + 2



    Вы не можете начинать темы
    Вы не можете отвечать на сообщения
    Вы не можете редактировать свои сообщения
    Вы не можете удалять свои сообщения
    Вы не можете голосовать в опросах
    Вы не можете прикреплять файлы к сообщениям
    Вы не можете скачивать файлы