BitTorrentTracker PerecTracker.org
BitTorrentTracker PerecTracker.org
    
Регистрация  ·  Вход
 
 · 
Забыли пароль?

  • Напролом / Lockout (Джеймс Мэтер / James Mather, Стивен Ст. Леджер / Stephen St. Leger) [2012, Франция, Фантастика, боевик, триллер, BDRip] [Расширенная версия / Unrated Cut] Dub

    Ответить на тему
     
    Автор Сообщение

    rechyn

    Создавать темы 26-Янв-2016 19:36

           

    [Цитировать]

    Напролом / Lockout
    «В одиночку против 500. В чем проблема?»
    -Год выхода: 2012
    Выпущено: Франция / Europa Corp.
    Жанр: фантастика, боевик, триллер
    Продолжительность: 01:35:19
    Перевод: Профессиональный (полное дублирование) BD RUS |Лицензия|
    Cубтитры: нет-Режиссер:
    Джеймс Мэтер / James Mather, Стивен Ст. Леджер / Stephen St. Leger-В ролях:
    Гай Пирс (Snow), Мэгги Грэйс (Emilie Warnock), Винсент Риган (Alex), Джозеф Гилган (Hydell), Ленни Джеймс (Shaw), Петер Стормаре (Langral), Джеки Идо (Hock), Тим Плестер (Mace), Марк Танкерсли (Barnes), Энн-Соленн Хатте (Kathryn), Питер Хадсон (President Warnock), Ник Хардин (Hostage Negotiator)-О фильме:
    Отправиться в Космос, проникнуть в самую неприступную тюрьму во Вселенной, прорваться сквозь толпу взбунтовавшихся уголовников и вырвать из их лап дочь президента, пока орбитальная станция не рухнула на Землю. Это может только спецагент Сноу. Потому что он лучший. Потому что он… неуправляем.-Релиз групп
    | | IMDB | КиноПоиск| Сэмпл |-Качество: BDRip [Lockout 2012 1080p Blu-Ray AVC DTS-HD MA 5.1-HDChina]
    Формат: AVI
    Видео: 720x304 (2.37:1), 23.976 fps, XviD build 65 ~1730 kbps avg, 0.33 bit/pixel
    Аудио: 48 kHz, AC3 Dolby Digital, 3/2 (L,C,R,l,r) + LFE ch, ~448.00 kbps avg-

    Скриншоты

    -

    MediaInfo

    Общее
    Полное имя                               : D:\Naprolom_2012_BDRip_UNRATED_by_Dalemake.avi
    Формат                                   : AVI
    Формат/Информация                        : Audio Video Interleave
    Размер файла                             : 1,46 Гбайт
    Продолжительность                        : 1 ч. 35 м.
    Общий поток                              : 2188 Кбит/сек
    Программа кодирования                    : VirtualDubMod 1.5.10.3 | www.virtualdub-fr.org || (build 2550/release)
    Библиотека кодирования                   : VirtualDubMod build 2550/release
    Видео
    Идентификатор                            : 0
    Формат                                   : MPEG-4 Visual
    Профиль формата                          : Advanced Simple@L5
    Параметр BVOP формата                    : 1
    Параметр QPel формата                    : Нет
    Параметр GMC формата                     : Без точки перехода
    Параметр матрицы формата                 : Выборочная
    Идентификатор кодека                     : XVID
    Идентификатор кодека/Подсказка           : XviD
    Продолжительность                        : 1 ч. 35 м.
    Битрейт                                  : 1731 Кбит/сек
    Ширина                                   : 720 пикселей
    Высота                                   : 304 пикселя
    Соотношение сторон                       : 2,35:1
    Частота кадров                           : 23,976 кадра/сек
    Цветовое пространство                    : YUV
    Субдискретизация насыщенности            : 4:2:0
    Битовая глубина                          : 8 бит
    Тип развёртки                            : Прогрессивная
    Метод сжатия                             : С потерями
    Бит/(Пиксели*Кадры)                      : 0.330
    Размер потока                            : 1,15 Гбайт (79%)
    Библиотека кодирования                   : XviD 65
    Аудио
    Идентификатор                            : 1
    Формат                                   : AC-3
    Формат/Информация                        : Audio Coding 3
    Расширение режима                        : CM (complete main)
    Параметр Endianness формата              : Big
    Идентификатор кодека                     : 2000
    Продолжительность                        : 1 ч. 35 м.
    Вид битрейта                             : Постоянный
    Битрейт                                  : 448 Кбит/сек
    Каналы                                   : 6 каналов
    Расположение каналов                     : Front: L C R, Side: L R, LFE
    Частота                                  : 48,0 КГц
    Метод сжатия                             : С потерями
    Размер потока                            : 305 Мбайт (20%)
    Выравнивание                             : Разделение по промежуткам
    Продолжительность промежутка             : 42  мс. (1,00 видеокадр)
    Время предзагрузки промежутка            : 500  мс.
    -
    Скачать .torrent

    Скачать торрент-файл бесплатно и на максимальной скорости!

    Как скачивать? · Что такое торрент? · Рейтинг и ограничения

    !ВНИМАНИЕ!
    Сайт не распространяет и не хранит электронные версии произведений, а занимается лишь лишь предоставлением доступа к создаваемому пользователями каталогу ссылок на торрент-файлы, которые содержат только списки хеш-сумм, убедительная просьба с жалобами обращаться напрямую к пользователю. Файлы для обмена на трекере предоставлены пользователями сайта, и администрация не несёт ответственности за их содержание. Просьба не заливать файлы, защищенные авторскими правами, а также файлы нелегального содержания!


    _________________
    [Профиль] [ЛС]
    Показать сообщения:    
    Ответить на тему

    Текущее время: Сегодня, в 14:23

    Часовой пояс: GMT + 2



    Вы не можете начинать темы
    Вы не можете отвечать на сообщения
    Вы не можете редактировать свои сообщения
    Вы не можете удалять свои сообщения
    Вы не можете голосовать в опросах
    Вы не можете прикреплять файлы к сообщениям
    Вы не можете скачивать файлы