BitTorrentTracker PerecTracker.org
BitTorrentTracker PerecTracker.org
    
Регистрация  ·  Вход
 
 · 
Забыли пароль?

  • Ужаленные / Stung (Бенжамин Диез / Benjamin Diez) [2015, Германия, США, ужасы, комедия, BDRip-AVC] MVO

    Ответить на тему
     
    Автор Сообщение

    rechyn

    Создавать темы 26-Янв-2016 19:35

           

    [Цитировать]

    Ужаленные
    Stung
    «The Ultimate Buzzkill»


    Страна: Германия, США
    Жанр: ужасы, комедия
    Год выпуска: 2015
    Продолжительность: 01:27:09
    Перевод: Профессиональный (многоголосый, закадровый) [Лицензия iTunes]
    Cубтитры: нет
    Оригинальная аудиодорожка: нет
    Режиссер: Бенжамин Диез / Benjamin Diez
    В ролях: Мэтью О’Лири, Джессика Кук, Клифтон Коллинз мл., Лэнс Хенриксен, Tony de Maeyer, Флорентина Ламе, Дэвид Мастерсон, Сесилия Пилладо, Kathleen Renish, Даниэль Риззо, Eve Slatner
    Описание:
    Вечеринка-маскарад заканчивается кровавым кошмаром, когда на людей нападают гигантские осы-убийцы, мутировавшие из обычных ос в огромных хищников. Двое молодых людей из обслуги, работающих на вечеринке, пытаются выжить в окружившем их ужасе. Параллельно у них развиваются чувства симпатии друг к другу...


    Автор рипа: Stalker oK
    Сэмпл
    Качество видео: BDRip-AVC [kinozal Blu-ray Remux 1080p]
    Формат видео: MKV
    Видео кодек: AVC
    Аудио кодек: AC3
    Видео: 1956 Кбит/сек, 1056x440 (2.40:1), 23,976 кадр/сек, AVC
    Аудио: русский, 384 Кбит/сек, 48 КГц, 16 бит, 5.1, AC3
    Навигация по главам: есть

    MediaInfo

    General
    Unique ID : 232613817189315498303321593971506569996 (0xAEFFCAA6516BFE0186DA14F6372A630C)
    Complete name : N:\Rips\Stung\Stung.2015.BDRip-AVC.MVO.1.45Gb...stalkerok.new-team.mkv
    Format : Matroska
    File size : 1.42 GiB
    Duration : 1h 27mn
    Overall bit rate : 2 339 Kbps
    Movie name : Stung (2015) (New-Team) (Rip by Stalker oK)
    Encoded date : UTC 2015-11-05 12:28:58
    Writing application : mkvmerge v7.9.0 ('Birds') 64bit
    Writing library : libebml v1.3.1 + libmatroska v1.4.2
    Video
    ID : 1
    Format : AVC
    Format/Info : Advanced Video Codec
    Format profile : High@L4.1
    Format settings, CABAC : Yes
    Format settings, ReFrames : 12 frames
    Codec ID : V_MPEG4/ISO/AVC
    Duration : 1h 27mn
    Bit rate : 1 956 Kbps
    Width : 1 056 pixels
    Height : 440 pixels
    Display aspect ratio : 2.40:1
    Frame rate : 23.976 fps
    Color space : YUV
    Chroma subsampling : 4:2:0
    Bit depth : 8 bits
    Scan type : Progressive
    Bits/(Pixel*Frame) : 0.176
    Stream size : 1.16 GiB (82%)
    Writing library : x264 core 146 r2538kMod 121396c
    Encoding settings : cabac=1 / ref=12 / deblock=1:-3:-3 / analyse=0x3:0x133 / me=umh / subme=11 / psy=1 / fade_compensate=0.00 / psy_rd=1.00:0.12 / mixed_ref=1 / me_range=48 / chroma_me=1 / trellis=2 / 8x8dct=1 / cqm=0 / deadzone=21,11 / fast_pskip=0 / chroma_qp_offset=-3 / threads=12 / lookahead_threads=3 / sliced_threads=0 / nr=0 / decimate=0 / interlaced=0 / bluray_compat=0 / constrained_intra=0 / fgo=0 / bframes=14 / b_pyramid=2 / b_adapt=2 / b_bias=0 / direct=3 / weightb=1 / open_gop=0 / weightp=2 / keyint=240 / keyint_min=23 / scenecut=40 / intra_refresh=0 / rc_lookahead=60 / rc=2pass / mbtree=0 / bitrate=1956 / ratetol=1.0 / qcomp=0.70 / qpmin=0 / qpmax=69 / qpstep=4 / cplxblur=20.0 / qblur=0.5 / vbv_maxrate=50000 / vbv_bufsize=62500 / nal_hrd=none / filler=0 / ip_ratio=1.40 / pb_ratio=1.30 / aq=3:0.90
    Audio
    ID : 2
    Format : AC-3
    Format/Info : Audio Coding 3
    Mode extension : CM (complete main)
    Codec ID : A_AC3
    Duration : 1h 27mn
    Bit rate mode : Constant
    Bit rate : 384 Kbps
    Channel(s) : 6 channels
    Channel positions : Front: L C R, Side: L R, LFE
    Sampling rate : 48.0 KHz
    Bit depth : 16 bits
    Compression mode : Lossy
    Stream size : 239 MiB (16%)
    Language : Russian
    Menu
    00:00:00.000 : en:Chapter 1
    00:06:17.001 : en:Chapter 2
    00:10:49.690 : en:Chapter 3
    00:17:21.290 : en:Chapter 4
    00:22:19.838 : en:Chapter 5
    00:28:04.849 : en:Chapter 6
    00:34:47.085 : en:Chapter 7
    00:41:34.909 : en:Chapter 8
    00:45:40.154 : en:Chapter 9
    00:51:33.799 : en:Chapter 10
    00:55:52.557 : en:Chapter 11
    01:01:53.126 : en:Chapter 12
    01:07:07.690 : en:Chapter 13
    01:12:34.141 : en:Chapter 14
    01:15:56.385 : en:Chapter 15
    01:22:05.170 : en:Chapter 16

    Скриншоты

    Скачать .torrent

    Скачать торрент-файл бесплатно и на максимальной скорости!

    Как скачивать? · Что такое торрент? · Рейтинг и ограничения

    !ВНИМАНИЕ!
    Сайт не распространяет и не хранит электронные версии произведений, а занимается лишь лишь предоставлением доступа к создаваемому пользователями каталогу ссылок на торрент-файлы, которые содержат только списки хеш-сумм, убедительная просьба с жалобами обращаться напрямую к пользователю. Файлы для обмена на трекере предоставлены пользователями сайта, и администрация не несёт ответственности за их содержание. Просьба не заливать файлы, защищенные авторскими правами, а также файлы нелегального содержания!


    _________________
    [Профиль] [ЛС]
    Показать сообщения:    
    Ответить на тему

    Текущее время: Сегодня, в 16:39

    Часовой пояс: GMT + 2



    Вы не можете начинать темы
    Вы не можете отвечать на сообщения
    Вы не можете редактировать свои сообщения
    Вы не можете удалять свои сообщения
    Вы не можете голосовать в опросах
    Вы не можете прикреплять файлы к сообщениям
    Вы не можете скачивать файлы