BitTorrentTracker PerecTracker.org
BitTorrentTracker PerecTracker.org
    
Регистрация  ·  Вход
 
 · 
Забыли пароль?

  • Ужаленные / Stung (Бенжамин Диез / Benjamin Diez) [2015, Германия, США, ужасы, комедия, BDRip-AVC] MVO + Original (Eng)

    Ответить на тему
     
    Автор Сообщение

    rechyn

    Создавать темы 26-Янв-2016 19:35

           

    [Цитировать]

    Ужаленные
    Stung
    «The Ultimate Buzzkill»


    Страна: Германия, США
    Жанр: ужасы, комедия
    Год выпуска: 2015
    Продолжительность: 01:27:09
    Перевод: Профессиональный (многоголосый, закадровый) [Лицензия iTunes]
    Cубтитры: нет
    Оригинальная аудиодорожка: Английский
    Режиссер: Бенжамин Диез / Benjamin Diez
    В ролях: Мэтью О’Лири, Джессика Кук, Клифтон Коллинз мл., Лэнс Хенриксен, Tony de Maeyer, Флорентина Ламе, Дэвид Мастерсон, Сесилия Пилладо, Kathleen Renish, Даниэль Риззо, Eve Slatner
    Описание:
    Вечеринка-маскарад заканчивается кровавым кошмаром, когда на людей нападают гигантские осы-убийцы, мутировавшие из обычных ос в огромных хищников. Двое молодых людей из обслуги, работающих на вечеринке, пытаются выжить в окружившем их ужасе. Параллельно у них развиваются чувства симпатии друг к другу...

    Релиз:
    Автор рипа: Stalker oK
    Сэмпл
    Качество видео: BDRip-AVC [kinozal Blu-ray Remux 1080p]
    Формат видео: MKV
    Видео кодек: AVC
    Аудио кодек: AC3
    Видео: 2691 Кбит/сек, 1152*480 (2,40:1), в 23,976 кадр/сек, AVC
    Аудио #1: Russian, 384 Кбит/сек, 48,0 КГц, 16 бит, 6 канала(ов), AC-3
    Аудио #2: English, 448 Кбит/сек, 48,0 КГц, 16 бит, 6 канала(ов), AC-3
    Навигация по главам: есть

    MediaInfo

    Общее
    Уникальный идентификатор : 178329457007150368445998993254224991751 (0x8629010E1D9F74828B136AD94FEB9607)
    Полное имя : N:\Rips\Stung\Stung.2015.BDRip-AVC.MVO.2.18Gb...stalkerok.new-team.mkv
    Формат : Matroska
    Размер файла : 2,14 Гбайт
    Продолжительность : 1 ч. 27 м.
    Общий поток : 3521 Кбит/сек
    Название фильма : Stung (2015) (New-Team) (Rip by Stalker oK)
    Дата кодирования : UTC 2015-11-07 13:30:12
    Программа кодирования : mkvmerge v7.9.0 ('Birds') 64bit
    Библиотека кодирования : libebml v1.3.1 + libmatroska v1.4.2
    Видео
    Идентификатор : 1
    Формат : AVC
    Формат/Информация : Advanced Video Codec
    Профиль формата : High@L4.1
    Параметр CABAC формата : Да
    Параметр ReFrames формата : 12 кадры
    Идентификатор кодека : V_MPEG4/ISO/AVC
    Продолжительность : 1 ч. 27 м.
    Битрейт : 2691 Кбит/сек
    Ширина : 1152 пикс.
    Высота : 480 пикс.
    Соотношение сторон : 2,40:1
    Частота кадров : 23,976 кадр/сек
    Цветовое пространство : YUV
    Подвыборка цветности : 4:2:0
    Битовая глубина : 8 бит
    Тип развёртки : Прогрессивная
    Бит/(Пиксели*Кадры) : 0.203
    Размер потока : 1,59 Гбайт (74%)
    Заголовок : Stung (2015) (New-Team) (Rip by Stalker oK)
    Библиотека кодирования : x264 core 146 r2538kMod 121396c
    Настройки программы : cabac=1 / ref=12 / deblock=1:-3:-3 / analyse=0x3:0x133 / me=umh / subme=11 / psy=1 / fade_compensate=0.00 / psy_rd=1.00:0.12 / mixed_ref=1 / me_range=48 / chroma_me=1 / trellis=2 / 8x8dct=1 / cqm=0 / deadzone=21,11 / fast_pskip=0 / chroma_qp_offset=-3 / threads=12 / lookahead_threads=3 / sliced_threads=0 / nr=0 / decimate=0 / interlaced=0 / bluray_compat=0 / constrained_intra=0 / fgo=0 / bframes=12 / b_pyramid=2 / b_adapt=2 / b_bias=0 / direct=3 / weightb=1 / open_gop=0 / weightp=2 / keyint=240 / keyint_min=23 / scenecut=40 / intra_refresh=0 / rc_lookahead=60 / rc=2pass / mbtree=0 / bitrate=2691 / ratetol=1.0 / qcomp=0.70 / qpmin=0 / qpmax=69 / qpstep=4 / cplxblur=20.0 / qblur=0.5 / vbv_maxrate=50000 / vbv_bufsize=62500 / nal_hrd=none / filler=0 / ip_ratio=1.40 / pb_ratio=1.30 / aq=3:0.80
    Аудио #1
    Идентификатор : 2
    Формат : AC-3
    Формат/Информация : Audio Coding 3
    Расширение режима : CM (complete main)
    Идентификатор кодека : A_AC3
    Продолжительность : 1 ч. 27 м.
    Вид битрейта : Постоянный
    Битрейт : 384 Кбит/сек
    Канал(ы) : 6 канала(ов)
    Расположение каналов : Front: L C R, Side: L R, LFE
    Частота : 48,0 КГц
    Битовая глубина : 16 бит
    Метод сжатия : С потерями
    Размер потока : 239 Мбайт (11%)
    Язык : Russian
    Аудио #2
    Идентификатор : 3
    Формат : AC-3
    Формат/Информация : Audio Coding 3
    Расширение режима : CM (complete main)
    Идентификатор кодека : A_AC3
    Продолжительность : 1 ч. 27 м.
    Вид битрейта : Постоянный
    Битрейт : 448 Кбит/сек
    Канал(ы) : 6 канала(ов)
    Расположение каналов : Front: L C R, Side: L R, LFE
    Частота : 48,0 КГц
    Битовая глубина : 16 бит
    Метод сжатия : С потерями
    Размер потока : 279 Мбайт (13%)
    Язык : English
    Меню
    00:00:00.000 : en:Chapter 1
    00:06:17.001 : en:Chapter 2
    00:10:49.690 : en:Chapter 3
    00:17:21.290 : en:Chapter 4
    00:22:19.838 : en:Chapter 5
    00:28:04.849 : en:Chapter 6
    00:34:47.085 : en:Chapter 7
    00:41:34.909 : en:Chapter 8
    00:45:40.154 : en:Chapter 9
    00:51:33.799 : en:Chapter 10
    00:55:52.557 : en:Chapter 11
    01:01:53.126 : en:Chapter 12
    01:07:07.690 : en:Chapter 13
    01:12:34.141 : en:Chapter 14
    01:15:56.385 : en:Chapter 15
    01:22:05.170 : en:Chapter 16

    Скриншоты

    Скачать .torrent

    Скачать торрент-файл бесплатно и на максимальной скорости!

    Как скачивать? · Что такое торрент? · Рейтинг и ограничения

    !ВНИМАНИЕ!
    Сайт не распространяет и не хранит электронные версии произведений, а занимается лишь лишь предоставлением доступа к создаваемому пользователями каталогу ссылок на торрент-файлы, которые содержат только списки хеш-сумм, убедительная просьба с жалобами обращаться напрямую к пользователю. Файлы для обмена на трекере предоставлены пользователями сайта, и администрация не несёт ответственности за их содержание. Просьба не заливать файлы, защищенные авторскими правами, а также файлы нелегального содержания!


    _________________
    [Профиль] [ЛС]
    Показать сообщения:    
    Ответить на тему

    Текущее время: Сегодня, в 05:55

    Часовой пояс: GMT + 2



    Вы не можете начинать темы
    Вы не можете отвечать на сообщения
    Вы не можете редактировать свои сообщения
    Вы не можете удалять свои сообщения
    Вы не можете голосовать в опросах
    Вы не можете прикреплять файлы к сообщениям
    Вы не можете скачивать файлы