BitTorrentTracker PerecTracker.org
BitTorrentTracker PerecTracker.org
    
Регистрация  ·  Вход
 
 · 
Забыли пароль?

  • Люси / Lucy (Люк Бессон / Luc Besson) [2014, Франция, боевик, фантастика, BDRip-AVC] Dub + Original (Eng) + Sub (Rus, Eng)

    Ответить на тему
     
    Автор Сообщение

    rechyn

    Создавать темы 26-Янв-2016 19:35

           

    [Цитировать]

    Люси
    Lucy
    «Она — ключ к тайнам Вселенной»


    Страна: Франция
    Жанр: боевик, фантастика
    Год выпуска: 2014
    Продолжительность: 01:29:20
    Перевод: Профессиональный (полное дублирование) [Лицензия Blu-ray CEE]
    Cубтитры: Русские (форс. + полные), Английские (форс. + полные)
    Оригинальная аудиодорожка: Английский
    Режиссер:
    Люк Бессон / Luc Besson
    В ролях:
    Скарлетт Йоханссон, Морган Фримен, Аналей Типтон, Чхве Мин Сик, Амр Вакид, Мэйсон Ли, Йохан Филип Асбек, Фредерик Чау, Клер Трэн, Жан Оливер Шредер
    Описание:
    Еще вчера она была просто сексапильной блондинкой, а сегодня — самое опасное и смертоносное создание на планете со сверхъестественными способностями и интеллектом. То, что совсем недавно лучшие умы мира считали фантастической теорией, для нее стало реальностью. И теперь из добычи она превратится в охотницу.


    Автор рипа: Stalker oK
    Сэмпл: multi-up
    Качество видео: BDRip-AVC [Blu-ray CEE 1080p AVC DTS 5.1]
    Формат видео: MKV
    Видео кодек: AVC
    Аудио кодек: AC3
    Видео: 2599 Кбит/сек, 1152*482 (2,35:1), в 23,976 кадр/сек, AVC
    Аудио #1: Russian, 448 Кбит/сек, 48,0 КГц, 16 бит, 6 канала(ов), AC-3
    Аудио #2: English, 448 Кбит/сек, 48,0 КГц, 16 бит, 6 канала(ов), AC-3

    MediaInfo

    Общее
    Уникальный идентификатор : 214097826547157887645830909242595957885 (0xA111BDD417EDEE7BA09532A4D5D95C7D)
    Полное имя : K:\TEMP\люси\Lucy.2014.BDRip-AVC.Dub.2.18Gb...stalkerok.new-team.mkv
    Формат : Matroska
    Размер файла : 2,18 Гбайт
    Продолжительность : 1 ч. 29 м.
    Общий поток : 3496 Кбит/сек
    Название фильма : Lucy, 2014 (New-Team) (Rip by Stalker oK)
    Дата кодирования : UTC 2014-11-24 21:16:20
    Программа кодирования : mkvmerge v6.1.0 ('Old Devil') built on Mar 4 2013 09:10:42
    Библиотека кодирования : libebml v1.3.0 + libmatroska v1.4.0
    Видео
    Идентификатор : 1
    Формат : AVC
    Формат/Информация : Advanced Video Codec
    Профиль формата : High@L4.1
    Параметр CABAC формата : Да
    Параметр ReFrames формата : 12 кадры
    Идентификатор кодека : V_MPEG4/ISO/AVC
    Продолжительность : 1 ч. 29 м.
    Битрейт : 2599 Кбит/сек
    Ширина : 1152 пикс.
    Высота : 482 пикс.
    Соотношение сторон : 2,35:1
    Частота кадров : 23,976 кадр/сек
    Цветовое пространство : YUV
    Подвыборка цветности : 4:2:0
    Битовая глубина : 8 бит
    Тип развёртки : Прогрессивная
    Бит/(Пиксели*Кадры) : 0.195
    Размер потока : 1,58 Гбайт (72%)
    Библиотека кодирования : x264 core 142 r2491kMod 24e4fed
    Настройки программы : cabac=1 / ref=12 / deblock=1:-3:-3 / analyse=0x3:0x133 / me=umh / subme=11 / psy=1 / fade_compensate=0.00 / psy_rd=1.00:0.12 / mixed_ref=1 / me_range=32 / chroma_me=1 / trellis=2 / 8x8dct=1 / cqm=0 / deadzone=21,11 / fast_pskip=0 / chroma_qp_offset=-3 / threads=12 / lookahead_threads=3 / sliced_threads=0 / nr=0 / decimate=0 / interlaced=0 / bluray_compat=0 / constrained_intra=0 / fgo=0 / bframes=12 / b_pyramid=2 / b_adapt=2 / b_bias=0 / direct=3 / weightb=1 / open_gop=0 / weightp=2 / keyint=240 / keyint_min=23 / scenecut=40 / intra_refresh=0 / rc_lookahead=60 / rc=2pass / mbtree=0 / bitrate=2599 / ratetol=1.0 / qcomp=0.70 / qpmin=0 / qpmax=69 / qpstep=4 / cplxblur=20.0 / qblur=0.5 / vbv_maxrate=50000 / vbv_bufsize=62500 / nal_hrd=none / filler=0 / ip_ratio=1.40 / pb_ratio=1.30 / aq=3:0.85
    Аудио #1
    Идентификатор : 2
    Формат : AC-3
    Формат/Информация : Audio Coding 3
    Расширение режима : CM (complete main)
    Идентификатор кодека : A_AC3
    Продолжительность : 1 ч. 29 м.
    Вид битрейта : Постоянный
    Битрейт : 448 Кбит/сек
    Канал(ы) : 6 канала(ов)
    Расположение каналов : Front: L C R, Side: L R, LFE
    Частота : 48,0 КГц
    Битовая глубина : 16 бит
    Метод сжатия : С потерями
    Размер потока : 286 Мбайт (13%)
    Язык : Russian
    Аудио #2
    Идентификатор : 3
    Формат : AC-3
    Формат/Информация : Audio Coding 3
    Расширение режима : CM (complete main)
    Идентификатор кодека : A_AC3
    Продолжительность : 1 ч. 29 м.
    Вид битрейта : Постоянный
    Битрейт : 448 Кбит/сек
    Канал(ы) : 6 канала(ов)
    Расположение каналов : Front: L C R, Side: L R, LFE
    Частота : 48,0 КГц
    Битовая глубина : 16 бит
    Метод сжатия : С потерями
    Размер потока : 286 Мбайт (13%)
    Язык : English
    Текст #1
    Идентификатор : 4
    Формат : UTF-8
    Идентификатор кодека : S_TEXT/UTF8
    Идентификатор кодека/Информация : UTF-8 Plain Text
    Заголовок : forced
    Язык : Russian
    Текст #2
    Идентификатор : 5
    Формат : UTF-8
    Идентификатор кодека : S_TEXT/UTF8
    Идентификатор кодека/Информация : UTF-8 Plain Text
    Язык : Russian
    Текст #3
    Идентификатор : 6
    Формат : UTF-8
    Идентификатор кодека : S_TEXT/UTF8
    Идентификатор кодека/Информация : UTF-8 Plain Text
    Заголовок : forced
    Язык : English
    Текст #4
    Идентификатор : 7
    Формат : UTF-8
    Идентификатор кодека : S_TEXT/UTF8
    Идентификатор кодека/Информация : UTF-8 Plain Text
    Язык : English
    Меню
    00:00:00.000 : en:Chapter 1
    00:05:26.367 : en:Chapter 2
    00:08:38.267 : en:Chapter 3
    00:15:45.903 : en:Chapter 4
    00:21:36.295 : en:Chapter 5
    00:26:05.397 : en:Chapter 6
    00:30:27.534 : en:Chapter 7
    00:37:36.254 : en:Chapter 8
    00:41:43.459 : en:Chapter 9
    00:47:32.558 : en:Chapter 10
    00:50:10.716 : en:Chapter 11
    00:55:32.495 : en:Chapter 12
    00:59:36.072 : en:Chapter 13
    01:02:08.099 : en:Chapter 14
    01:04:51.345 : en:Chapter 15
    01:07:14.030 : en:Chapter 16
    01:09:55.816 : en:Chapter 17
    01:12:26.133 : en:Chapter 18
    01:18:50.600 : en:Chapter 19
    01:22:31.571 : en:Chapter 20
    01:29:20.146 : en:Chapter 21

    Скриншоты

    Скачать .torrent

    Скачать торрент-файл бесплатно и на максимальной скорости!

    Как скачивать? · Что такое торрент? · Рейтинг и ограничения

    !ВНИМАНИЕ!
    Сайт не распространяет и не хранит электронные версии произведений, а занимается лишь лишь предоставлением доступа к создаваемому пользователями каталогу ссылок на торрент-файлы, которые содержат только списки хеш-сумм, убедительная просьба с жалобами обращаться напрямую к пользователю. Файлы для обмена на трекере предоставлены пользователями сайта, и администрация не несёт ответственности за их содержание. Просьба не заливать файлы, защищенные авторскими правами, а также файлы нелегального содержания!


    _________________
    [Профиль] [ЛС]
    Показать сообщения:    
    Ответить на тему

    Текущее время: Сегодня, в 22:20

    Часовой пояс: GMT + 2



    Вы не можете начинать темы
    Вы не можете отвечать на сообщения
    Вы не можете редактировать свои сообщения
    Вы не можете удалять свои сообщения
    Вы не можете голосовать в опросах
    Вы не можете прикреплять файлы к сообщениям
    Вы не можете скачивать файлы