BitTorrentTracker PerecTracker.org
BitTorrentTracker PerecTracker.org
    
Регистрация  ·  Вход
 
 · 
Забыли пароль?

  • Самый лучший день (Жора Крыжовников) [2015, Россия, Комедия, музыка, WEB-DL, HD (720p)] Original

    Ответить на тему
     
    Автор Сообщение

    Flirldrerve

    Создавать темы 26-Янв-2016 07:25

           

    [Цитировать]

    Самый лучший день
    «Душа поёт!»
    5.648 / 10 5.80 / 10
    -Год выпуска: 2015
    Страна: Россия
    Жанр: Комедия, музыка
    Продолжительность: 01:46:54
    Перевод: Не требуется
    Оригинальная аудиодорожка: Есть
    Cубтитры: Нет
    Режиссёр: Жора Крыжовников
    Сценарий: Жора Крыжовников, Алексей Казаков
    Продюсер: Алексей Казаков, Жора Крыжовников, Тимур Бекмамбетов
    Оператор: Иван Лебедев, Максим Шинкоренко
    Художник: Эльдар Кархалев, Мария Пасичник, Наталья Занчевская
    В ролях: Дмитрий Нагиев, Юлия Александрова, Ольга Серябкина, Инна Чурикова, Михаил Боярский, Елена Яковлева, Владислав Ветров, Валентина Мазунина, Ян Цапник, Андрей Малахов
    Сборы в России: $9 179 324
    Мировая премьера: 25 декабря 2015
    Премьера (РФ): 24 декабря 2015, «Bazelevs Distribution»
    Описание: Успешному сотруднику ДПС Пете Васютину уже давно пора заводить семью, а он живет с мамой, хозяйкой придорожного кафе. И невеста есть — королева бензоколонки, кассирша Оля. В тот самый день, когда Петя решает сделать Оле предложение, в его служебную машину врезается пьяная поп-звезда Алина Шёпот. Чтобы избежать наказания, Алина решает соблазнить Петю…-Качество исходника: WEB-DL 720p (NNMClub)
    Качество: WEB-DL
    Тип: HD (720p)
    Контейнер: M4V
    Видео: H.264, 1280x720, 16:9, 4 102 Kbps, 24.000 fps
    Аудио 1: Русский/Оригинальная дорожка Не требуется, AAC / 2.0 / 157 Kbps / 48.0 KHz
    Аудио 2: Русский/Оригинальная дорожка , AC-3 / 5.1 / 384 Kbps / 48.0 KHz
    -

    iTunes Meta Tags

    Sort Name: Самый лучший день
    XID: Apple:vendor_id:2015-843784
    contentID: 1071122438
    Copyright: © 2015 Таббак
    Screenwriters: Жора Крыжовников, Алексей Казаков
    Producers: Алексей Казаков, Жора Крыжовников, Тимур Бекмамбетов
    Director: Жора Крыжовников
    Cast: Дмитрий Нагиев, Юлия Александрова, Ольга Серябкина, Инна Чурикова, Михаил Боярский, Елена Яковлева, Владислав Ветров, Валентина Мазунина, Ян Цапник, Андрей Малахов
    Studio: Базелевс Продакшн
    Rating: 135
    Long Description: Успешному сотруднику ДПС Пете Васютину уже давно пора заводить семью, а он живет с мамой, хозяйкой придорожного кафе. И невеста есть - королева бензоколонки, кассирша Оля. В тот самый день, когда Петя решает сделать Оле предложение, в его служебную машину врезается пьяная поп-звезда Алина Шёпот. Чтобы избежать наказания, Алина решает соблазнить Петю...
    Description: Успешному сотруднику ДПС Пете Васютину уже давно пора заводить семью, а он живет с мамой, хозяйкой придорожного кафе. И невеста есть - королева бензоколонки, кассирша Оля. В тот самый день, когда Петя решает сделать Оле предложение, в его служебную машину врезается пьяная поп-звезда Алина Шёпот. Чтобы избежать наказания, Алина решает соблазнить Петю...
    Release Date: 2015-12-25T08:00:00Z
    Genre: Comedy
    Artist: Жора Крыжовников
    Name: Самый лучший день

    MediaInfo

    General
    Complete name : /Users/imac/HandBrake/Samyy.luchshiy.den.WEB-DL.720p.m4v
    Format : MPEG-4
    Codec ID : M4V  (M4V /M4A /mp42/isom)
    File size : 3.47 GiB
    Duration : 1h 46mn
    Overall bit rate mode : Variable
    Overall bit rate : 4 652 Kbps
    Movie name : Самый лучший день
    Performer : Жора Крыжовников
    Director : Жора Крыжовников
    Actor : Дмитрий Нагиев / Юлия Александрова / Ольга Серябкина / Инна Чурикова / Михаил Боярский / Елена Яковлева / Владислав Ветров / Валентина Мазунина / Ян Цапник / Андрей Малахов
    Screenplay by : Жора Крыжовников / Алексей Казаков
    Producer : Алексей Казаков / Жора Крыжовников / Тимур Бекмамбетов
    Production studio : Базелевс Продакшн
    Genre : Comedy
    ContentType : Short Film
    Description : Успешному сотруднику ДПС Пете Васютину уже давно пора заводить семью, а он живет с мамой, хозяйкой придорожного кафе. И невеста есть - королева бензоколонки, кассирша Оля. В тот самый день, когда Петя решает сделать Оле предложение, в его служебную машину врезается пьяная поп-звезда Алина Шёпот. Чтобы избежать наказания, Алина решает соблазнить Петю...
    Recorded date : UTC 2015-12-25 08:00:00
    Encoded date : UTC 2016-01-25 20:50:49
    Tagged date : UTC 2016-01-25 20:53:14
    Copyright : © 2015 Таббак
    Cover : Yes
    Rating : None
    Title/Sort : Самый лучший день
    LongDescription : Успешному сотруднику ДПС Пете Васютину уже давно пора заводить семью, а он живет с мамой, хозяйкой придорожного кафе. И невеста есть - королева бензоколонки, кассирша Оля. В тот самый день, когда Петя решает сделать Оле предложение, в его служебную машину врезается пьяная поп-звезда Алина Шёпот. Чтобы избежать наказания, Алина решает соблазнить Петю...
    HDVideo : Yes
    AppleStoreCatalogID : 1071122438
    Vendor : Apple:vendor_id:2015-843784
    ContentRating : ru-movie|16+|375|
    Video #1
    ID : 1
    Format : AVC
    Format/Info : Advanced Video Codec
    Format profile : High@L3.1
    Format settings, CABAC : No
    Format settings, ReFrames : 2 frames
    Format settings, GOP : M=2, N=90
    Codec ID : avc1
    Codec ID/Info : Advanced Video Coding
    Duration : 1h 46mn
    Bit rate : 4 102 Kbps
    Width : 1 280 pixels
    Height : 720 pixels
    Display aspect ratio : 16:9
    Frame rate mode : Variable
    Frame rate : 24.000 fps
    Minimum frame rate : 23.810 fps
    Maximum frame rate : 24.390 fps
    Color space : YUV
    Chroma subsampling : 4:2:0
    Bit depth : 8 bits
    Scan type : Progressive
    Bits/(Pixel*Frame) : 0.185
    Stream size : 3.06 GiB (88%)
    Title : Main Program
    Language : Russian
    Encoded date : UTC 2016-01-25 20:50:49
    Tagged date : UTC 2016-01-25 20:52:41
    Color range : Limited
    Color primaries : BT.709
    Transfer characteristics : BT.709
    Matrix coefficients : BT.709
    Menus : 4,5
    Video #2
    ID : 5
    Format : JPEG
    Codec ID : jpeg
    Duration : 1h 46mn
    Bit rate mode : Variable
    Bit rate : 1 106 bps
    Width : 640 pixels
    Height : 360 pixels
    Display aspect ratio : 16:9
    Frame rate mode : Constant
    Frame rate : 0.002 fps
    Color space : YUV
    Chroma subsampling : 4:2:0
    Bit depth : 8 bits
    Compression mode : Lossy
    Bits/(Pixel*Frame) : 2.400
    Stream size : 1.19 MiB (0%)
    Title : Chapter Images
    Language : Russian
    Default : No
    Encoded date : UTC 2016-01-25 20:52:45
    Tagged date : UTC 2016-01-25 20:52:46
    Menu For : 1
    Audio #1
    ID : 2
    Format : AAC
    Format/Info : Advanced Audio Codec
    Format profile : LC
    Codec ID : 40
    Duration : 1h 46mn
    Bit rate mode : Variable
    Bit rate : 157 Kbps
    Maximum bit rate : 256 Kbps
    Channel(s) : 2 channels
    Channel positions : Front: L R
    Sampling rate : 48.0 KHz
    Frame rate : 46.875 fps (1024 spf)
    Compression mode : Lossy
    Stream size : 120 MiB (3%)
    Title : Russian Stereo
    Language : Russian
    Default : Yes
    Alternate group : 1
    Encoded date : UTC 2016-01-25 20:50:49
    Tagged date : UTC 2016-01-25 20:50:54
    Fallback From : 3
    Audio #2
    ID : 3
    Format : AC-3
    Format/Info : Audio Coding 3
    Mode extension : CM (complete main)
    Format settings, Endianness : Big
    Codec ID : ac-3
    Duration : 1h 46mn
    Bit rate mode : Constant
    Bit rate : 384 Kbps
    Channel(s) : 6 channels
    Channel positions : Front: L C R, Side: L R, LFE
    Sampling rate : 48.0 KHz
    Frame rate : 31.250 fps (1536 spf)
    Bit depth : 16 bits
    Compression mode : Lossy
    Stream size : 294 MiB (8%)
    Title : Russian DD 5.1
    Language : Russian
    Default : Inherited From: 2
    Alternate group : 1
    Encoded date : UTC 2016-01-25 20:50:49
    Tagged date : UTC 2016-01-25 20:50:54
    Fallback To : 2
    Menu #1
    00:00:00.000 : 1
    00:06:21.000 : 2
    00:11:40.000 : 3
    00:17:17.000 : 4
    00:22:26.000 : 5
    00:28:25.000 : 6
    00:34:38.000 : 7
    00:41:31.000 : 8
    00:47:00.000 : 9
    00:53:24.000 : 10
    00:59:26.000 : 11
    01:04:54.000 : 12
    01:11:11.000 : 13
    01:16:52.000 : 14
    01:22:57.999 : 15
    01:28:08.000 : 16
    01:33:28.999 : 17
    01:39:37.000 : 18
    Menu #2
    ID : 4
    Codec ID : text
    Duration : 1h 46mn
    Language : Russian
    Encoded date : UTC 2016-01-25 20:52:41
    Tagged date : UTC 2016-01-25 20:52:41
    Menu For : 1
    00:00:00.000 : 1
    00:06:21.000 : 2
    00:11:40.000 : 3
    00:17:17.000 : 4
    00:22:26.000 : 5
    00:28:25.000 : 6
    00:34:38.000 : 7
    00:41:31.000 : 8
    00:47:00.000 : 9
    00:53:24.000 : 10
    00:59:26.000 : 11
    01:04:54.000 : 12
    01:11:11.000 : 13
    01:16:52.000 : 14
    01:22:57.999 : 15
    01:28:08.000 : 16
    01:33:28.999 : 17
    01:39:37.000 : 18
    Bit rate mode : VBR

    Скриншоты

    -

    Релиз подготовлен для просмотра на Apple TV, iPad, iPhone, iPod Touch.
    Для просмотра данного релиза на компьютере с ОС Windows рекомендуется использовать VLC media player
    Скачать .torrent

    Скачать торрент-файл бесплатно и на максимальной скорости!

    Как скачивать? · Что такое торрент? · Рейтинг и ограничения

    !ВНИМАНИЕ!
    Сайт не распространяет и не хранит электронные версии произведений, а занимается лишь лишь предоставлением доступа к создаваемому пользователями каталогу ссылок на торрент-файлы, которые содержат только списки хеш-сумм, убедительная просьба с жалобами обращаться напрямую к пользователю. Файлы для обмена на трекере предоставлены пользователями сайта, и администрация не несёт ответственности за их содержание. Просьба не заливать файлы, защищенные авторскими правами, а также файлы нелегального содержания!


    _________________
    [Профиль] [ЛС]
    Показать сообщения:    
    Ответить на тему

    Текущее время: Сегодня, в 00:29

    Часовой пояс: GMT + 2



    Вы не можете начинать темы
    Вы не можете отвечать на сообщения
    Вы не можете редактировать свои сообщения
    Вы не можете удалять свои сообщения
    Вы не можете голосовать в опросах
    Вы не можете прикреплять файлы к сообщениям
    Вы не можете скачивать файлы