BitTorrentTracker PerecTracker.org
BitTorrentTracker PerecTracker.org
    
Регистрация  ·  Вход
 
 · 
Забыли пароль?

  • В ясный день / On a Clear Day (Гэби Диллэл / Gaby Dellal) [2005, Великобритания, драма, WEB-DL 720p] MVO + Sub Eng, Rus + Original Eng

    Ответить на тему
     
    Автор Сообщение

    Flirldrerve

    Создавать темы 26-Янв-2016 03:08

           

    [Цитировать]

    В ясный день / On a Clear Day
    Страна: США
    Жанр: Драма
    Год выпуска: 2005
    Продолжительность: 01:38:34-Перевод: Профессиональный (многоголосый закадровый)
    Cубтитры: английские, русские
    Оригинальная аудиодорожка: английский-Режиссер: Гэби Диллэл / Gaby Dellal-В ролях: Питер Муллан, Бренда Блетин, Шон МакГинли, Джэйми Сайвз, Рон Кук, Бенедикт Вонг-Описание:
    Суровый рабочий из города Глазго, не привыкший ко всяким глупостям вроде сидения без дела, рефлексиям и проявлениям родственных чувств, вдруг в возрасте 55 лет обнаруживает себя на пенсии, предоставленным самому себе. Он пытается наладить отношения со взрослым сыном и двумя прелестными внуками, больше общаться с женой и друзьями и в какой-то момент понимает, что для гармонии с миром и укрепления семьи ему нужно переплыть Ла-Манш...-Сэмпл: Скачать-Тип релиза: WEB-DL 720p
    Контейнер: MKV-Видео: 1 280x690 (1.85:1); 3 885 Kbps; 23.976 fps; 0.183 bpp
    Аудио 1: Russian; AC3; 48.0 KHz; 6ch; 384 Kbps
    Аудио 2: English; AC3; 48.0 KHz; 6ch; 384 Kbps
    Формат субтитров: softsub (SRT)

    MediaInfo

    Format : Matroska
    Format version : Version 4 / Version 2
    File size : 3.27 GiB
    Duration : 1h 38mn
    Overall bit rate : 4 747 Kbps
    Encoded date : UTC 2015-07-31 07:32:39
    Writing application : mkvmerge v8.1.0 ('Psychedelic Postcard') 64bit
    Writing library : libebml v1.3.1 + libmatroska v1.4.2
    Attachements : poster.jpg
    DURATION : 01:38:34.048000000
    NUMBER_OF_FRAMES : 184814
    NUMBER_OF_BYTES : 283874304
    _STATISTICS_WRITING_APP : mkvmerge v8.1.0 ('Psychedelic Postcard') 64bit
    _STATISTICS_WRITING_DATE_UTC : 2015-07-31 07:32:39
    _STATISTICS_TAGS : BPS DURATION NUMBER_OF_FRAMES NUMBER_OF_BYTES
    Video
    ID : 1
    Format : AVC
    Format/Info : Advanced Video Codec
    Format profile : High@L3.1
    Format settings, CABAC : No
    Format settings, ReFrames : 2 frames
    Codec ID : V_MPEG4/ISO/AVC
    Duration : 1h 38mn
    Bit rate : 3 885 Kbps
    Width : 1 280 pixels
    Height : 690 pixels
    Display aspect ratio : 1.85:1
    Frame rate mode : Constant
    Frame rate : 23.976 fps
    Color space : YUV
    Chroma subsampling : 4:2:0
    Bit depth : 8 bits
    Scan type : Progressive
    Bits/(Pixel*Frame) : 0.183
    Stream size : 2.67 GiB (82%)
    Language : English
    Default : Yes
    Forced : No
    Color primaries : BT.709
    Transfer characteristics : BT.709
    Matrix coefficients : BT.709
    Audio #1
    ID : 2
    Format : AC-3
    Format/Info : Audio Coding 3
    Mode extension : CM (complete main)
    Format settings, Endianness : Big
    Codec ID : A_AC3
    Duration : 1h 38mn
    Bit rate mode : Constant
    Bit rate : 384 Kbps
    Channel(s) : 6 channels
    Channel positions : Front: L C R, Side: L R, LFE
    Sampling rate : 48.0 KHz
    Bit depth : 16 bits
    Compression mode : Lossy
    Stream size : 271 MiB (8%)
    Title : MVO
    Language : Russian
    Default : Yes
    Forced : No
    Audio #2
    ID : 3
    Format : AC-3
    Format/Info : Audio Coding 3
    Mode extension : CM (complete main)
    Format settings, Endianness : Big
    Codec ID : A_AC3
    Duration : 1h 38mn
    Bit rate mode : Constant
    Bit rate : 384 Kbps
    Channel(s) : 6 channels
    Channel positions : Front: L C R, Side: L R, LFE
    Sampling rate : 48.0 KHz
    Bit depth : 16 bits
    Compression mode : Lossy
    Stream size : 271 MiB (8%)
    Language : English
    Default : No
    Forced : No
    Text #1
    ID : 4
    Format : UTF-8
    Codec ID : S_TEXT/UTF8
    Codec ID/Info : UTF-8 Plain Text
    Language : Russian
    Default : No
    Forced : No
    Text #2
    ID : 5
    Format : UTF-8
    Codec ID : S_TEXT/UTF8
    Codec ID/Info : UTF-8 Plain Text
    Language : English
    Default : No
    Forced : No
    Menu
    00:00:00.000 : en:Out of Work
    00:05:29.000 : en:Looking for a Job
    00:10:01.000 : en:Running Scared
    00:15:15.000 : en:A New Challenge
    00:20:51.000 : en:Loyalty
    00:25:33.000 : en:In Training
    00:30:35.000 : en:Not So Easy
    00:34:52.000 : en:Moral Support
    00:40:55.000 : en:Beached
    00:45:17.000 : en:Troubled Waters
    00:50:51.000 : en:Mad Bob
    00:54:57.000 : en:Lies
    00:59:48.000 : en:Who’s to Blame?
    01:05:56.000 : en:Never Give Up
    01:11:06.000 : en:Happy Days
    01:16:09.000 : en:Good Luck
    01:20:02.000 : en:The Journey Begins
    01:24:42.000 : en:Against the Tide
    01:29:49.000 : en:On Firm Ground
    01:34:56.000 : en:End Titles

    Скриншоты

    Скачать .torrent

    Скачать торрент-файл бесплатно и на максимальной скорости!

    Как скачивать? · Что такое торрент? · Рейтинг и ограничения

    !ВНИМАНИЕ!
    Сайт не распространяет и не хранит электронные версии произведений, а занимается лишь лишь предоставлением доступа к создаваемому пользователями каталогу ссылок на торрент-файлы, которые содержат только списки хеш-сумм, убедительная просьба с жалобами обращаться напрямую к пользователю. Файлы для обмена на трекере предоставлены пользователями сайта, и администрация не несёт ответственности за их содержание. Просьба не заливать файлы, защищенные авторскими правами, а также файлы нелегального содержания!


    _________________
    [Профиль] [ЛС]
    Показать сообщения:    
    Ответить на тему

    Текущее время: Сегодня, в 19:56

    Часовой пояс: GMT + 2



    Вы не можете начинать темы
    Вы не можете отвечать на сообщения
    Вы не можете редактировать свои сообщения
    Вы не можете удалять свои сообщения
    Вы не можете голосовать в опросах
    Вы не можете прикреплять файлы к сообщениям
    Вы не можете скачивать файлы