BitTorrentTracker PerecTracker.org
BitTorrentTracker PerecTracker.org
    
Регистрация  ·  Вход
 
 · 
Забыли пароль?

  • Дикки Робертс: Звездный ребенок / Dickie Roberts: Former Child Star (Сэм Уэйсмэн / Sam Weisman) [2003, США, комедия, WEB-DL 1080p] MVO + Sub Eng + Original Eng

    Ответить на тему
     
    Автор Сообщение

    Flirldrerve

    Создавать темы 26-Янв-2016 03:08

           

    [Цитировать]

    Дикки Робертс: звездный ребенок / Dickie roberts: former child star
    Страна: США
    Студия: Paramount Pictures, Happy Madison Productions
    Жанр: комедия
    Год выпуска: 2003
    Продолжительность: 01:38:24
    Перевод: Профессиональный (многоголосый закадровый)
    Cубтитры: английские
    Оригинальная аудиодорожка: английский
    Режиссер: Сэм Уэйсмэн / Sam Weisman
    В ролях: Дорис Робертс, Дэвид Спэйд, Джон Фарли, Алисса Милано, Мэри Маккормакк,Крэйг Биерко, Скотт Терра, Дженна Бойд, Бобби Слейтон, Майкл Баффер, Фред Уолф, Эммануэль Льюис, Джои Диас, Кевин Гревайоукс и др.
    Описание: Бывший телезвездой в юном возрасте, 35-летний Дикки Рибертс теперь работает на автостоянке, но никак не может забыть о вкусе славы. Отчаянное желание вернуться на экран приводит его на пробы к знаменитому режиссеру, но тут оказывается, что бывший звездный ребенок не годится на роль обычного парня! Что же такое - быть таким, как все? Чтобы узнать об этом, Дикки находит типичную семью и платит ей за его... усыновление. Он хочет вновь пережить детство, но уже нормальное, без "звездности". Однако стоит ему стать членом семьи Финни, обыденностью в их доме больше и не пахнет!
    II Сэмпл II IMDB II
    Тип релиза: WEB-DL 1080p
    Контейнер: MKV
    Видео: AVC / 1916x796 / 2.41:1 / 23.976fps / Bit rate 4958Kbps
    Аудио 1: AC3 / 48.0 KHz / 6ch. / 384kbps / rus / mvo
    Аудио 2: AC3 / 48.0 KHz / 6ch. / 384kbps / eng
    Формат субтитров: softsub (SRT)

    MediaInfo

    Общее
    Уникальный идентификатор : 253162698518882148480940563732454699797 (0xBE755CB8594A685C90469AC26B93F315)
    Полное имя : G:\!!!_torrent\Dickie.Roberts.Former.Child.Star.2003.WEB-DL.1080p_by_vedigo.mkv
    Формат : Matroska
    Версия формата : Version 4 / Version 2
    Размер файла : 4,02 Гбайт
    Продолжительность : 1 ч. 38 м.
    Общий поток : 5843 Кбит/сек
    Название фильма : Dickie.Roberts.Former.Child.Star.2003.WEB-DL.1080p_by_vedigo
    Дата кодирования : UTC 2015-10-16 01:40:14
    Программа кодирования : mkvmerge v8.4.0 ('A better way to fly') 64bit
    Библиотека кодирования : libebml v1.3.1 + libmatroska v1.4.2
    DURATION : 01:38:24.608000000
    NUMBER_OF_FRAMES : 184519
    NUMBER_OF_BYTES : 283421184
    _STATISTICS_WRITING_APP : mkvmerge v8.4.0 ('A better way to fly') 64bit
    _STATISTICS_WRITING_DATE_UTC : 2015-10-16 01:40:14
    _STATISTICS_TAGS : BPS DURATION NUMBER_OF_FRAMES NUMBER_OF_BYTES
    Видео
    Идентификатор : 1
    Формат : AVC
    Формат/Информация : Advanced Video Codec
    Профиль формата : High@L4
    Параметр CABAC формата : Да
    Параметр ReFrames формата : 5 кадров
    Идентификатор кодека : V_MPEG4/ISO/AVC
    Продолжительность : 1 ч. 38 м.
    Битрейт : 4959 Кбит/сек
    Ширина : 1916 пикселей
    Высота : 796 пикселей
    Соотношение сторон : 2,40:1
    Режим частоты кадров : Постоянный
    Частота кадров : 23,976 кадра/сек
    Цветовое пространство : YUV
    Субдискретизация насыщенности : 4:2:0
    Битовая глубина : 8 бит
    Тип развёртки : Прогрессивная
    Бит/(Пиксели*Кадры) : 0.136
    Размер потока : 3,41 Гбайт (85%)
    Заголовок : Dickie.Roberts.Former.Child.Star.2003.WEB-DL.1080p_by_vedigo
    Default : Да
    Forced : Нет
    Цветовой диапазон : Limited
    Основные цвета : BT.709
    Характеристики трансфера : BT.709
    Коэффициенты матрицы : BT.709
    Аудио #1
    Идентификатор : 2
    Формат : AC-3
    Формат/Информация : Audio Coding 3
    Расширение режима : CM (complete main)
    Параметр Endianness формата : Big
    Идентификатор кодека : A_AC3
    Продолжительность : 1 ч. 38 м.
    Вид битрейта : Постоянный
    Битрейт : 384 Кбит/сек
    Каналы : 6 каналов
    Расположение каналов : Front: L C R, Side: L R, LFE
    Частота : 48,0 КГц
    Метод сжатия : С потерями
    Размер потока : 270 Мбайт (7%)
    Заголовок : MVO
    Язык : Russian
    Default : Да
    Forced : Нет
    Аудио #2
    Идентификатор : 3
    Формат : AC-3
    Формат/Информация : Audio Coding 3
    Расширение режима : CM (complete main)
    Параметр Endianness формата : Big
    Идентификатор кодека : A_AC3
    Продолжительность : 1 ч. 38 м.
    Вид битрейта : Постоянный
    Битрейт : 384 Кбит/сек
    Каналы : 6 каналов
    Расположение каналов : Front: L C R, Side: L R, LFE
    Частота : 48,0 КГц
    Метод сжатия : С потерями
    Размер потока : 270 Мбайт (7%)
    Заголовок : original
    Язык : English
    Default : Нет
    Forced : Нет
    Текст
    Идентификатор : 4
    Формат : UTF-8
    Идентификатор кодека : S_TEXT/UTF8
    Идентификатор кодека/Информация : UTF-8 Plain Text
    Заголовок : subtitle eng
    Язык : English
    Default : Нет
    Forced : Нет
    Меню
    00:00:00.000 : en:"Nucking Futs!"
    00:05:33.000 : en:Desperate Dickie
    00:09:07.000 : en:Bending The Rules
    00:13:41.000 : en:Poker Night
    00:17:27.000 : en:To Be A Star Again
    00:22:19.000 : en:Family For Hire
    00:27:37.000 : en:Stranger Danger Moves In
    00:33:21.000 : en:Normal Crap
    00:36:20.000 : en:Tree House Training
    00:43:00.000 : en:Slipping And Sliding
    00:47:30.000 : en:Part Of The Family
    00:52:28.000 : en:Dickie To The Rescue
    01:01:24.000 : en:Fitting In
    01:06:36.000 : en:Tryouts
    01:10:24.000 : en:Cindy's Back
    01:17:02.000 : en:Sidney Comes Through
    01:24:18.000 : en:The Audition
    01:32:18.000 : en:We Love Being Child Stars

    Скриншоты


    Скачать .torrent

    Скачать торрент-файл бесплатно и на максимальной скорости!

    Как скачивать? · Что такое торрент? · Рейтинг и ограничения

    !ВНИМАНИЕ!
    Сайт не распространяет и не хранит электронные версии произведений, а занимается лишь лишь предоставлением доступа к создаваемому пользователями каталогу ссылок на торрент-файлы, которые содержат только списки хеш-сумм, убедительная просьба с жалобами обращаться напрямую к пользователю. Файлы для обмена на трекере предоставлены пользователями сайта, и администрация не несёт ответственности за их содержание. Просьба не заливать файлы, защищенные авторскими правами, а также файлы нелегального содержания!


    _________________
    [Профиль] [ЛС]
    Показать сообщения:    
    Ответить на тему

    Текущее время: Сегодня, в 10:36

    Часовой пояс: GMT + 2



    Вы не можете начинать темы
    Вы не можете отвечать на сообщения
    Вы не можете редактировать свои сообщения
    Вы не можете удалять свои сообщения
    Вы не можете голосовать в опросах
    Вы не можете прикреплять файлы к сообщениям
    Вы не можете скачивать файлы