BitTorrentTracker PerecTracker.org
BitTorrentTracker PerecTracker.org
    
Регистрация  ·  Вход
 
 · 
Забыли пароль?

  • Лето Пламмов / A Plumm Summer (Каролина Зелдер / Caroline Zelder) [2007, США, приключения, семейный, детектив, WEB-DL 720p] MVO + VO + Sub Rus, Eng + Original Eng

    Ответить на тему
     
    Автор Сообщение

    Flirldrerve

    Создавать темы 26-Янв-2016 03:08

           

    [Цитировать]

    Лето Пламмов / A Plumm Summer
    -Страна: США
    Жанр: приключения, семейный, детектив
    Год выпуска: 2007
    Продолжительность: 01:41:55-Перевод 1: Профессиональный (многоголосый закадровый)
    Перевод 2: Одноголосый закадровый
    Cубтитры: английские, русские ( Saqqara )
    Оригинальная аудиодорожка: английский-Режиссер: Каролина Зелдер / Caroline Zelder-В ролях: Джефф Дэниелс, Уильям Болдуин, Генри Уинклер, Лиза Герерро, Крис Массоглиа, Оуэн Пирс, Морган Флинн, Бренда Стронг, Тим Куилл, Питер Сколари, Рик Овертон-Описание:
    В основе фильма реально произошедшая история о похищении популярного телеперсонажа, куклы Фрогги Ду. Эта удивительная история двух братьев Эллиотта и Рокки Пламмов, следовавших в собственном расследовании похищения куклы бок о бок с агентами ФБР, что бы вернуть куклу в телеэфир. Решая запутанную детективную историю, братья стали не только местными знаменитостями, но и лучшими друзьями.-Сэмпл: Скачать-Тип релиза: WEB-DL 720p
    Контейнер: MKV-Видео: 1280x720 (16:9); 3 976 Kbps; 23.976 fps; 0.180 bpp
    Аудио 1: Russian; AC3; 48.0 KHz; 2ch; 192 Kbps MVO
    Аудио 2: Russian; AC3; 48.0 KHz; 2ch; 192 Kbps VO
    Аудио 3: English; AC3; 48.0 KHz; 6ch; 384 Kbps

    MediaInfo

    Format : Matroska
    Format version : Version 4 / Version 2
    File size : 3.45 GiB
    Duration : 1h 41mn
    Overall bit rate : 4 841 Kbps
    Encoded date : UTC 2015-08-01 08:51:39
    Writing application : mkvmerge v8.1.0 ('Psychedelic Postcard') 64bit
    Writing library : libebml v1.3.1 + libmatroska v1.4.2
    Attachements : poster.jpg
    DURATION : 01:41:10.500000000
    NUMBER_OF_FRAMES : 1119
    NUMBER_OF_BYTES : 73872
    _STATISTICS_WRITING_APP : mkvmerge v8.1.0 ('Psychedelic Postcard') 64bit
    _STATISTICS_WRITING_DATE_UTC : 2015-08-01 08:51:39
    _STATISTICS_TAGS : BPS DURATION NUMBER_OF_FRAMES NUMBER_OF_BYTES
    Video
    ID : 1
    Format : AVC
    Format/Info : Advanced Video Codec
    Format profile : High@L3.1
    Format settings, CABAC : No
    Format settings, ReFrames : 2 frames
    Codec ID : V_MPEG4/ISO/AVC
    Duration : 1h 41mn
    Bit rate : 3 976 Kbps
    Width : 1 280 pixels
    Height : 720 pixels
    Display aspect ratio : 16:9
    Frame rate mode : Constant
    Frame rate : 23.976 fps
    Color space : YUV
    Chroma subsampling : 4:2:0
    Bit depth : 8 bits
    Scan type : Progressive
    Bits/(Pixel*Frame) : 0.180
    Stream size : 2.83 GiB (82%)
    Language : English
    Default : Yes
    Forced : No
    Color primaries : BT.709
    Transfer characteristics : BT.709
    Matrix coefficients : BT.709
    Audio #1
    ID : 2
    Format : AC-3
    Format/Info : Audio Coding 3
    Mode extension : CM (complete main)
    Format settings, Endianness : Big
    Codec ID : A_AC3
    Duration : 1h 41mn
    Bit rate mode : Constant
    Bit rate : 192 Kbps
    Channel(s) : 2 channels
    Channel positions : Front: L R
    Sampling rate : 48.0 KHz
    Bit depth : 16 bits
    Compression mode : Lossy
    Stream size : 140 MiB (4%)
    Title : MVO
    Language : Russian
    Default : Yes
    Forced : No
    Audio #2
    ID : 3
    Format : AC-3
    Format/Info : Audio Coding 3
    Mode extension : CM (complete main)
    Format settings, Endianness : Big
    Codec ID : A_AC3
    Duration : 1h 41mn
    Bit rate mode : Constant
    Bit rate : 192 Kbps
    Channel(s) : 2 channels
    Channel positions : Front: L R
    Sampling rate : 48.0 KHz
    Bit depth : 16 bits
    Compression mode : Lossy
    Stream size : 140 MiB (4%)
    Title : VO
    Language : Russian
    Default : No
    Forced : No
    Audio #3
    ID : 4
    Format : AC-3
    Format/Info : Audio Coding 3
    Mode extension : CM (complete main)
    Format settings, Endianness : Big
    Codec ID : A_AC3
    Duration : 1h 41mn
    Bit rate mode : Constant
    Bit rate : 384 Kbps
    Channel(s) : 6 channels
    Channel positions : Front: L C R, Side: L R, LFE
    Sampling rate : 48.0 KHz
    Bit depth : 16 bits
    Compression mode : Lossy
    Stream size : 280 MiB (8%)
    Language : English
    Default : No
    Forced : No
    Text #1
    ID : 5
    Format : UTF-8
    Codec ID : S_TEXT/UTF8
    Codec ID/Info : UTF-8 Plain Text
    Title : Saqqara
    Language : Russian
    Default : No
    Forced : No
    Text #2
    ID : 6
    Format : UTF-8
    Codec ID : S_TEXT/UTF8
    Codec ID/Info : UTF-8 Plain Text
    Title : CC
    Language : English
    Default : No
    Forced : No
    Menu
    00:00:00.000 : en:Chapter 1
    00:04:35.000 : en:Chapter 2
    00:09:43.000 : en:Chapter 3
    00:15:19.000 : en:Chapter 4
    00:22:35.000 : en:Chapter 5
    00:30:34.000 : en:Chapter 6
    00:35:55.000 : en:Chapter 7
    00:40:13.000 : en:Chapter 8
    00:45:31.000 : en:Chapter 9
    00:51:02.000 : en:Chapter 10
    00:56:58.000 : en:Chapter 11
    01:03:43.000 : en:Chapter 12
    01:09:11.000 : en:Chapter 13
    01:15:40.000 : en:Chapter 14
    01:21:08.000 : en:Chapter 15
    01:26:27.000 : en:Chapter 16
    01:35:02.000 : en:Chapter 17
    01:37:40.000 : en:Chapter 18

    Скриншоты

    Скачать .torrent

    Скачать торрент-файл бесплатно и на максимальной скорости!

    Как скачивать? · Что такое торрент? · Рейтинг и ограничения

    !ВНИМАНИЕ!
    Сайт не распространяет и не хранит электронные версии произведений, а занимается лишь лишь предоставлением доступа к создаваемому пользователями каталогу ссылок на торрент-файлы, которые содержат только списки хеш-сумм, убедительная просьба с жалобами обращаться напрямую к пользователю. Файлы для обмена на трекере предоставлены пользователями сайта, и администрация не несёт ответственности за их содержание. Просьба не заливать файлы, защищенные авторскими правами, а также файлы нелегального содержания!


    _________________
    [Профиль] [ЛС]
    Показать сообщения:    
    Ответить на тему

    Текущее время: Сегодня, в 11:57

    Часовой пояс: GMT + 2



    Вы не можете начинать темы
    Вы не можете отвечать на сообщения
    Вы не можете редактировать свои сообщения
    Вы не можете удалять свои сообщения
    Вы не можете голосовать в опросах
    Вы не можете прикреплять файлы к сообщениям
    Вы не можете скачивать файлы