BitTorrentTracker PerecTracker.org
BitTorrentTracker PerecTracker.org
    
Регистрация  ·  Вход
 
 · 
Забыли пароль?

  • Автора! Автора! / Author! Author! (Артур Хиллер / Arthur Hiller) [1982, США, комедия, мелодрама, драма, семейный, HDTV 1080i] MVO (Первый канал)

    Ответить на тему
     
    Автор Сообщение

    Flirldrerve

    Создавать темы 26-Янв-2016 03:08

           

    [Цитировать]

    Автора! Автора! / Author! Author!
    «The play must go on, and so must his family»

    Страна: США
    Студия: 20th Century FOX
    Жанр: Комедия, мелодрама, драма, семейный
    Год выпуска: 1982
    Продолжительность: 01:41:36
    Перевод: Профессиональный (многоголосый закадровый) Первый канал
    Cубтитры: нет
    Оригинальная аудиодорожка: нет
    Режиссер: Артур Хиллер / Arthur Hiller
    В ролях: Аль Пачино, Дайан Кэннон, Тьюзди Уэлд, Боб Диши, Боб Эллиотт, Рэй Гулдинг, Эрик Гарри, Элва Джозефсон, Б.Дж. Бари, Эри Мейерс
    Описание: Главный герой фильма — драматург Айвэн Травальян. Он работает на Бродвее — пишет пьесы для спектаклей. Вот-вот должна состояться премьера его новой пьесы, над которой он работал 2 года. Но продюсер всё откладывает и откладывает премьеру.
    Кроме того Айвэна ожидает личная неприятность — его бросает жена Глория. Айвэн остаётся вместе с пятью детьми — со своим родным сыном и четырьмя детьми Глории от её трёх прошлых браков. Скрашивает жизнь сценариста в этот тяжёлый период актриса Элис Детройт — она играет главную роль в новом спектакле самого Айвэна и он с ней немного сближается.-
    MPAA: PG - Рекомендуется присутствие родителей-Релиз подготовил Parabellumm, специально для -Тип релиза: HDTV 1080i - Sample
    Контейнер: TS
    Видео: MPEG-4 AVC, 1920x1080 (16:9), 7063 Кбит/с, 25 кадров/сек, 0.136 бит/пиксель
    Аудио: MPEG Layer 2, 48 КГц, 2 канал, 224 Кбит/с

    MediaInfo

    Общее
    Идентификатор : 1 (0x1)
    Полное имя : C:\Фильмы\Author!Author!.1982.1080i.HDTV.Rutracker-PB.ts
    Формат : MPEG-TS
    Размер файла : 5,44 Гбайт
    Продолжительность : 1 ч. 41 м.
    Режим общего битрейта : Переменный
    Общий поток : 7668 Кбит/сек
    Видео
    Идентификатор : 67 (0x43)
    Идентификатор меню : 1 (0x1)
    Формат : AVC
    Формат/Информация : Advanced Video Codec
    Профиль формата : High@L4.0
    Параметр CABAC формата : Да
    Параметр ReFrames формата : 3 кадра
    Идентификатор кодека : 27
    Продолжительность : 1 ч. 41 м.
    Битрейт : 7063 Кбит/сек
    Ширина : 1920 пикселей
    Высота : 1080 пикселей
    Соотношение сторон : 16:9
    Частота кадров : 25,000 кадров/сек
    Стандарт вещания : Component
    Цветовое пространство : YUV
    Субдискретизация насыщенности : 4:2:0
    Битовая глубина : 8 бит
    Тип развёртки : Чересстрочная
    Порядок развёртки : Верхнее поле первое
    Бит/(Пиксели*Кадры) : 0.136
    Размер потока : 5,01 Гбайт (92%)
    Основные цвета : BT.709
    Характеристики трансфера : BT.709
    Коэффициенты матрицы : BT.709
    Аудио
    Идентификатор : 68 (0x44)
    Идентификатор меню : 1 (0x1)
    Формат : MPEG Audio
    Версия формата : Version 1
    Профиль формата : Layer 2
    Идентификатор кодека : 3
    Продолжительность : 1 ч. 41 м.
    Вид битрейта : Постоянный
    Битрейт : 224 Кбит/сек
    Каналы : 2 канала
    Частота : 48,0 КГц
    Метод сжатия : С потерями
    Размер потока : 163 Мбайт (3%)
    Язык : Russian

    Скриншоты


    Скачать .torrent

    Скачать торрент-файл бесплатно и на максимальной скорости!

    Как скачивать? · Что такое торрент? · Рейтинг и ограничения

    !ВНИМАНИЕ!
    Сайт не распространяет и не хранит электронные версии произведений, а занимается лишь лишь предоставлением доступа к создаваемому пользователями каталогу ссылок на торрент-файлы, которые содержат только списки хеш-сумм, убедительная просьба с жалобами обращаться напрямую к пользователю. Файлы для обмена на трекере предоставлены пользователями сайта, и администрация не несёт ответственности за их содержание. Просьба не заливать файлы, защищенные авторскими правами, а также файлы нелегального содержания!


    _________________
    [Профиль] [ЛС]
    Показать сообщения:    
    Ответить на тему

    Текущее время: Сегодня, в 22:28

    Часовой пояс: GMT + 2



    Вы не можете начинать темы
    Вы не можете отвечать на сообщения
    Вы не можете редактировать свои сообщения
    Вы не можете удалять свои сообщения
    Вы не можете голосовать в опросах
    Вы не можете прикреплять файлы к сообщениям
    Вы не можете скачивать файлы