BitTorrentTracker PerecTracker.org
BitTorrentTracker PerecTracker.org
    
Регистрация  ·  Вход
 
 · 
Забыли пароль?

  • Безумная свадьба / Qu\'est-ce qu\'on a fait au Bon Dieu? (Филипп де Шоврон / Philippe de Chauveron) [2014, Франция, комедия, HDTV 1080i] Dub

    Ответить на тему
     
    Автор Сообщение

    Flirldrerve

    Создавать темы 26-Янв-2016 03:08

           

    [Цитировать]

    Безумная свадьба / Qu'est-ce qu'on a fait au Bon Dieu?Страна: Франция
    Жанр: комедия
    Год выпуска: 2014
    Продолжительность: 01:32:57
    Перевод: Профессиональный (дублированный)
    Cубтитры: нет
    Режиссер: Филипп де Шоврон / Philippe de Chauveron
    В ролях: Кристиан Клавье, Шанталь Лоби, Эри Абиттан, Меди Садун, Фредерик Шо, Нум Дьявара, Фредерик Бель, Джулия Пьятон, Эмили Кан, Элоди Фонтан
    Описание: Главные герои фильма, мсье Верней и его жена — добропорядочная буржуазная французская супружеская пара, родители четырех красавиц-дочерей. Как известно, основная проблема всех подобных семей — выдать дочек замуж, чтобы не засиделись в девках. У семейства Верней такой проблемы нет. Три дочери уже нашли свое счастье, вот только мужья, по мнению родителей, подкачали: один — китаец, другой — араб, третий — еврей… Пришло время, и четвертая дочь сообщает радостную весть: она тоже выходит замуж! И ее жених… чернокожий.
    Сэмпл: http://multi-up.com/1071816

    Тип релиза: HDTV 1080i
    Контейнер: TS
    Видео: AVC/H.264, PAL, 1920x1080 (16:9), 10,7 Мбит/сек, 25.000 fps
    Аудио 1: русский, MP2, 2ch, 48,0 КГц, 192 Кбит/сек
    Аудио 2: русский, AC3, 6ch, 48,0 КГц, 448 Кбит/сек

    MediaInfo

    Общее
    Идентификатор : 1 (0x1)
    Полное имя : D:\Безумная свадьба.ts
    Формат : MPEG-TS
    Размер файла : 7,78 Гбайт
    Продолжительность : 1 ч. 32 м.
    Режим общего битрейта : Переменный
    Общий поток : 12,0 Мбит/сек
    Видео
    Идентификатор : 3511 (0xDB7)
    Идентификатор меню : 34011 (0x84DB)
    Формат : AVC
    Формат/Информация : Advanced Video Codec
    Профиль формата : Main@L4.0
    Параметр CABAC формата : Да
    Параметр ReFrames формата : 3 кадра
    Идентификатор кодека : 27
    Продолжительность : 1 ч. 32 м.
    Битрейт : 10,7 Мбит/сек
    Ширина : 1920 пикселей
    Высота : 1080 пикселей
    Соотношение сторон : 16:9
    Частота кадров : 25,000 кадров/сек
    Стандарт вещания : Component
    Цветовое пространство : YUV
    Субдискретизация насыщенности : 4:2:0
    Битовая глубина : 8 бит
    Тип развёртки : Чересстрочная
    Порядок развёртки : Верхнее поле первое
    Бит/(Пиксели*Кадры) : 0.207
    Размер потока : 6,97 Гбайт (90%)
    Основные цвета : BT.709
    Характеристики трансфера : BT.709
    Коэффициенты матрицы : BT.709
    colour_range : Limited
    Аудио #1
    Идентификатор : 3513 (0xDB9)
    Идентификатор меню : 34011 (0x84DB)
    Формат : MPEG Audio
    Версия формата : Version 1
    Профиль формата : Layer 2
    Идентификатор кодека : 3
    Продолжительность : 1 ч. 32 м.
    Вид битрейта : Постоянный
    Битрейт : 192 Кбит/сек
    Каналы : 2 канала
    Частота : 48,0 КГц
    Метод сжатия : С потерями
    Размер потока : 128 Мбайт (2%)
    Язык : Russian
    Аудио #2
    Идентификатор : 3512 (0xDB8)
    Идентификатор меню : 34011 (0x84DB)
    Формат : AC-3
    Формат/Информация : Audio Coding 3
    Расширение режима : CM (complete main)
    Параметр Endianness формата : Big
    Идентификатор кодека : 6
    Продолжительность : 1 ч. 32 м.
    Вид битрейта : Постоянный
    Битрейт : 448 Кбит/сек
    Каналы : 6 каналов
    Расположение каналов : Front: L C R, Side: L R, LFE
    Частота : 48,0 КГц
    Битовая глубина : 16 бит
    Метод сжатия : С потерями
    Размер потока : 298 Мбайт (4%)
    Язык : Russian

    Скриншот с названием фильма

    Скриншоты

    Скачать .torrent

    Скачать торрент-файл бесплатно и на максимальной скорости!

    Как скачивать? · Что такое торрент? · Рейтинг и ограничения

    !ВНИМАНИЕ!
    Сайт не распространяет и не хранит электронные версии произведений, а занимается лишь лишь предоставлением доступа к создаваемому пользователями каталогу ссылок на торрент-файлы, которые содержат только списки хеш-сумм, убедительная просьба с жалобами обращаться напрямую к пользователю. Файлы для обмена на трекере предоставлены пользователями сайта, и администрация не несёт ответственности за их содержание. Просьба не заливать файлы, защищенные авторскими правами, а также файлы нелегального содержания!


    _________________
    [Профиль] [ЛС]
    Показать сообщения:    
    Ответить на тему

    Текущее время: Сегодня, в 20:00

    Часовой пояс: GMT + 2



    Вы не можете начинать темы
    Вы не можете отвечать на сообщения
    Вы не можете редактировать свои сообщения
    Вы не можете удалять свои сообщения
    Вы не можете голосовать в опросах
    Вы не можете прикреплять файлы к сообщениям
    Вы не можете скачивать файлы