BitTorrentTracker PerecTracker.org
BitTorrentTracker PerecTracker.org
    
Регистрация  ·  Вход
 
 · 
Забыли пароль?

  • 10 мгновений судьбы / The Turning (Джонатан Ауф Дер Хайди / Jonathan Auf Der Heide, Тони Эйрс / Tony Ayres, Клер / Jub Clerc) [2013, Австралия, драма, HDTV 1080i] MVO

    Ответить на тему
     
    Автор Сообщение

    Flirldrerve

    Создавать темы 26-Янв-2016 03:07

           

    [Цитировать]

    10 мгновений судьбы / The TurningСтрана: Австралия
    Жанр: драма
    Год выпуска: 2013
    Продолжительность: 01:42:15
    Перевод: Профессиональный (многоголосый закадровый)
    Cубтитры: нет
    Оригинальная аудиодорожка: нет
    Режиссер: Джонатан Ауф Дер Хайди / Jonathan Auf Der Heide , Тони Эйрс / Tony Ayres , Клер / Jub Clerc
    В ролях: Кейт Бланшетт, Роуз Бирн, Миранда Отто, Ричард Роксбург, Хьюго Уивинг, Колин Фрилз, Джеймс Фрайзер, Генри Филлипс, Никита Ровер-Притчард, Тим Уинтон
    Описание: Фильм представляет собой 10 отдельных короткометражных фильмов, поставленных разными режиссерами. Сюжеты этих историй, на первый взгляд, не связаны между собой, и каждый из эпизодов создан в своем уникальном стиле. Хотя есть многое, что их объединяет…
    Сэмпл: http://multi-up.com/1072120

    Тип релиза: HDTV 1080i
    Контейнер: TS
    Видео: AVC/H.264, PAL, 1920x1080 (16:9), 9526 Кбит/сек, 25.000 fps
    Аудио 1: русский, MP2, 2ch, 48,0 КГц, 192 Кбит/сек
    Аудио 2: русский, AC3, 6ch, 48,0 КГц, 448 Кбит/сек

    MediaInfo

    Общее
    Идентификатор : 1 (0x1)
    Полное имя : D:\10 мгновений судьбы.ts
    Формат : MPEG-TS
    Размер файла : 7,64 Гбайт
    Продолжительность : 1 ч. 42 м.
    Режим общего битрейта : Переменный
    Общий поток : 10,7 Мбит/сек
    Видео
    Идентификатор : 3511 (0xDB7)
    Идентификатор меню : 34011 (0x84DB)
    Формат : AVC
    Формат/Информация : Advanced Video Codec
    Профиль формата : Main@L4.0
    Параметр CABAC формата : Да
    Параметр ReFrames формата : 3 кадра
    Параметр GOP формата : M=4, N=32
    Идентификатор кодека : 27
    Продолжительность : 1 ч. 42 м.
    Битрейт : 9526 Кбит/сек
    Ширина : 1920 пикселей
    Высота : 1080 пикселей
    Соотношение сторон : 16:9
    Частота кадров : 25,000 кадров/сек
    Стандарт вещания : Component
    Цветовое пространство : YUV
    Субдискретизация насыщенности : 4:2:0
    Битовая глубина : 8 бит
    Тип развёртки : Чересстрочная
    Порядок развёртки : Верхнее поле первое
    Бит/(Пиксели*Кадры) : 0.184
    Размер потока : 6,80 Гбайт (89%)
    Основные цвета : BT.709
    Характеристики трансфера : BT.709
    Коэффициенты матрицы : BT.709
    colour_range : Limited
    Аудио #1
    Идентификатор : 3513 (0xDB9)
    Идентификатор меню : 34011 (0x84DB)
    Формат : MPEG Audio
    Версия формата : Version 1
    Профиль формата : Layer 2
    Идентификатор кодека : 3
    Продолжительность : 1 ч. 42 м.
    Вид битрейта : Постоянный
    Битрейт : 192 Кбит/сек
    Каналы : 2 канала
    Частота : 48,0 КГц
    Метод сжатия : С потерями
    Задержка видео : -40 мс.
    Размер потока : 140 Мбайт (2%)
    Язык : Russian
    Аудио #2
    Идентификатор : 3512 (0xDB8)
    Идентификатор меню : 34011 (0x84DB)
    Формат : AC-3
    Формат/Информация : Audio Coding 3
    Расширение режима : CM (complete main)
    Параметр Endianness формата : Big
    Идентификатор кодека : 6
    Продолжительность : 1 ч. 42 м.
    Вид битрейта : Постоянный
    Битрейт : 448 Кбит/сек
    Каналы : 6 каналов
    Расположение каналов : Front: L C R, Side: L R, LFE
    Частота : 48,0 КГц
    Битовая глубина : 16 бит
    Метод сжатия : С потерями
    Задержка видео : -40 мс.
    Размер потока : 328 Мбайт (4%)
    Язык : Russian

    Скриншот названием фильма

    Скриншоты

    Скачать .torrent

    Скачать торрент-файл бесплатно и на максимальной скорости!

    Как скачивать? · Что такое торрент? · Рейтинг и ограничения

    !ВНИМАНИЕ!
    Сайт не распространяет и не хранит электронные версии произведений, а занимается лишь лишь предоставлением доступа к создаваемому пользователями каталогу ссылок на торрент-файлы, которые содержат только списки хеш-сумм, убедительная просьба с жалобами обращаться напрямую к пользователю. Файлы для обмена на трекере предоставлены пользователями сайта, и администрация не несёт ответственности за их содержание. Просьба не заливать файлы, защищенные авторскими правами, а также файлы нелегального содержания!


    _________________
    [Профиль] [ЛС]
    Показать сообщения:    
    Ответить на тему

    Текущее время: Сегодня, в 12:27

    Часовой пояс: GMT + 2



    Вы не можете начинать темы
    Вы не можете отвечать на сообщения
    Вы не можете редактировать свои сообщения
    Вы не можете удалять свои сообщения
    Вы не можете голосовать в опросах
    Вы не можете прикреплять файлы к сообщениям
    Вы не можете скачивать файлы