BitTorrentTracker PerecTracker.org
BitTorrentTracker PerecTracker.org
    
Регистрация  ·  Вход
 
 · 
Забыли пароль?

  • Вирус любви / Get Over It (Томми О’Хейвер / Tommy O\'Haver) [2001, США, мелодрама, комедия, HDTV 1080i] Dub

    Ответить на тему
     
    Автор Сообщение

    Flirldrerve

    Создавать темы 26-Янв-2016 03:07

           

    [Цитировать]

    Вирус любви / Get Over It«Переболей, любовь пройдет как насморк...»Страна: США
    Жанр: мелодрама, комедия
    Год выпуска: 2001
    Продолжительность: 01:22:30
    Перевод: Профессиональный (дублированный)
    Cубтитры: нет
    Режиссер: Томми О’Хейвер / Tommy O'Haver
    В ролях: Кирстен Данст, Бен Фостер, Сиско, Мартин Шорт, Шейн Уэст, Колин Хэнкс, Кармен Электра, Мелисса Сейджмиллер, Зои Салдана, Мила Кунис
    Описание: Выпускной год складывался для Бёрка Ландерса как нельзя лучше. Он встречался с красавицей Элисон в которую был влюблен с пеленок. Все считали их идеальной парой, и оказалось, что это — любовь до гроба.
    Но в один прекрасный день Бёрк получает от ворот поворот, и вот уже Элисон видят в компании самого крутого парня — Страйкера, а ее бывший пребывает в ступоре от отчаяния. Все попытки друзей привести Бёрка в чувство проваливаются одна за одной, до тех пор, пока за дело всерьез не берется Келли, младшая сестра его лучшего друга…
    Сэмпл: http://multi-up.com/1073216

    Тип релиза: HDTV 1080i
    Контейнер: TS
    Видео: AVC/H.264, PAL, 1920x1080 (16:9), 8603 Кбит/сек, 25.000 fps
    Аудио: русский, MP2, 2ch, 48,0 КГц, 192 Кбит/сек

    MediaInfo

    Общее
    Идентификатор : 1 (0x1)
    Полное имя : D:\Вирус любви.ts
    Формат : MPEG-TS
    Размер файла : 5,61 Гбайт
    Продолжительность : 1 ч. 22 м.
    Режим общего битрейта : Переменный
    Общий поток : 9730 Кбит/сек
    Видео
    Идентификатор : 3031 (0xBD7)
    Идентификатор меню : 1 (0x1)
    Формат : AVC
    Формат/Информация : Advanced Video Codec
    Профиль формата : Main@L4.0
    Параметр CABAC формата : Да
    Параметр ReFrames формата : 3 кадра
    Параметр GOP формата : M=4, N=32
    Идентификатор кодека : 27
    Продолжительность : 1 ч. 22 м.
    Битрейт : 8603 Кбит/сек
    Ширина : 1920 пикселей
    Высота : 1080 пикселей
    Соотношение сторон : 16:9
    Частота кадров : 25,000 кадров/сек
    Стандарт вещания : Component
    Цветовое пространство : YUV
    Субдискретизация насыщенности : 4:2:0
    Битовая глубина : 8 бит
    Тип развёртки : Чересстрочная
    Порядок развёртки : Верхнее поле первое
    Бит/(Пиксели*Кадры) : 0.166
    Размер потока : 4,96 Гбайт (88%)
    Основные цвета : BT.709
    Характеристики трансфера : BT.709
    Коэффициенты матрицы : BT.709
    colour_range : Limited
    Аудио
    Идентификатор : 3032 (0xBD8)
    Идентификатор меню : 1 (0x1)
    Формат : MPEG Audio
    Версия формата : Version 1
    Профиль формата : Layer 2
    Идентификатор кодека : 3
    Продолжительность : 1 ч. 22 м.
    Вид битрейта : Постоянный
    Битрейт : 192 Кбит/сек
    Каналы : 2 канала
    Частота : 48,0 КГц
    Метод сжатия : С потерями
    Размер потока : 113 Мбайт (2%)
    Язык : Russian

    Скриншот названием фильма

    Скриншоты

    Скачать .torrent

    Скачать торрент-файл бесплатно и на максимальной скорости!

    Как скачивать? · Что такое торрент? · Рейтинг и ограничения

    !ВНИМАНИЕ!
    Сайт не распространяет и не хранит электронные версии произведений, а занимается лишь лишь предоставлением доступа к создаваемому пользователями каталогу ссылок на торрент-файлы, которые содержат только списки хеш-сумм, убедительная просьба с жалобами обращаться напрямую к пользователю. Файлы для обмена на трекере предоставлены пользователями сайта, и администрация не несёт ответственности за их содержание. Просьба не заливать файлы, защищенные авторскими правами, а также файлы нелегального содержания!


    _________________
    [Профиль] [ЛС]
    Показать сообщения:    
    Ответить на тему

    Текущее время: Сегодня, в 00:24

    Часовой пояс: GMT + 2



    Вы не можете начинать темы
    Вы не можете отвечать на сообщения
    Вы не можете редактировать свои сообщения
    Вы не можете удалять свои сообщения
    Вы не можете голосовать в опросах
    Вы не можете прикреплять файлы к сообщениям
    Вы не можете скачивать файлы