BitTorrentTracker PerecTracker.org
BitTorrentTracker PerecTracker.org
    
Регистрация  ·  Вход
 
 · 
Забыли пароль?

  • Жадность / Greedy (Джонатан Линн / Jonathan Lynn) [1994, США, комедия, BDRip 720p] MVO (R5) + 3x AVO (Михалёв, Пронин, Живов) + Original Eng + Sub Rus, Eng

    Ответить на тему
     
    Автор Сообщение

    Flirldrerve

    Создавать темы 26-Янв-2016 03:07

           

    [Цитировать]

    Жадность / Greedy
    «Where there's a will...there's a relative»
    Год выпуска: 1994
    Страна: США
    Производство: Imagine Entertainment
    Жанр: Комедия
    Продолжительность: 01:52:21
    Перевод 1: Профессиональный (многоголосый закадровый) | R5
    Перевод 2: Авторский (одноголосый закадровый) | Михалёв
    Перевод 3: Авторский (одноголосый закадровый) | Пронин
    Перевод 4: Авторский (одноголосый закадровый) | Живов
    Оригинальная аудиодорожка: Английский
    Субтитры: Русские, английские
    Режиссёр: Джонатан Линн
    В ролях: Майкл Дж. Фокс, Кирк Дуглас, Нэнси Трэвис, Оливия д’Або, Фил Хартмен, Эд Бегли мл., Джер Бернс, Коллин Кэмп, Боб Бэлабан, Джойс Хайзер и др.
    Описание: Жадность часто толкает на неблаговидные поступки в погоне за вожделенными деньгами. Это отлично понимает старый лукавый миллионер Джо МакТиг. У него нет своих детей и прямых наследников. Зато есть куча дальних и близких родственников, стаей кружащих вокруг него в надежде отхватить лакомый кусок от дядюшкиного наследства. Старик играет с ними, как кошка с мышками. Он нанимает молоденькую симпатичную сиделку Молли Ричардсон и явно к ней благоволит. В стане родственников смятение. Молли — прямая и явная угроза их планам. Надо действовать!


    SbR
    Сэмпл
    Качество: BDRip 720p
    Формат: MKV
    Видео: MPEG-4 AVC: ~8829 kbps / 1280x694 / 23.976 fps / 16:9
    Аудио: Russian: DTS / 2.0 / 48 kHz / 448 kbps / 24-bit | R5
    Аудио: Russian: AC3 / 2.0 / 48 kHz / 192 kbps | Михалёв
    Аудио: Russian: AC3 / 2.0 / 48 kHz / 192 kbps | Пронин
    Аудио: Russian: DTS / 5.1 / 48 kHz / 1509 kbps / 24-bit | Живов
    Аудио: English: AC3 / 5.1 / 48 kHz / 640 kbps | Оригинальный

    MediaInfoXP

    GeneralUnique ID : 192110784266183672456847753620250678642 (0x908730F2DCF05C8686D02FAEC537D572)Complete name : F:\Greedy.1994.720p.BluRay.4xRus.Eng.x264-SbR.mkvFormat : MatroskaFormat version : Version 4 / Version 2File size : 9.46 GiBDuration : 1h 52mnOverall bit rate : 12.0 MbpsEncoded date : UTC 2015-11-01 15:53:25Writing application : mkvmerge v8.3.0 ('Over the Horizon') 64bitWriting library : libebml v1.3.1 + libmatroska v1.4.2Attachements : cover.jpgDURATION : 01:48:13.486000000NUMBER_OF_FRAMES : 1679NUMBER_OF_BYTES : 59122_STATISTICS_WRITING_APP : mkvmerge v8.3.0 ('Over the Horizon') 64bit_STATISTICS_WRITING_DATE_UTC : 2015-11-01 15:53:25_STATISTICS_TAGS : BPS DURATION NUMBER_OF_FRAMES NUMBER_OF_BYTES
    VideoID : 1Format : AVCFormat/Info : Advanced Video CodecFormat profile : High@L4.1Format settings, CABAC : YesFormat settings, ReFrames : 9 framesCodec ID : V_MPEG4/ISO/AVCDuration : 1h 52mnBit rate : 8 829 KbpsWidth : 1 280 pixelsHeight : 694 pixelsDisplay aspect ratio : 1.85:1Frame rate mode : ConstantFrame rate : 23.976 fpsColor space : YUVChroma subsampling : 4:2:0Bit depth : 8 bitsScan type : ProgressiveBits/(Pixel*Frame) : 0.415Stream size : 6.93 GiB (73%)Writing library : x264 core 146 r0+2586 e393126 t_mod_Custom [8-bit@all X86_64]Encoding settings : cabac=1 / ref=9 / deblock=1:-3:-3 / analyse=0x3:0x133 / me=umh / subme=10 / psy=1 / fade_compensate=0.00 / psy_rd=1.05:0.05 / mixed_ref=1 / me_range=24 / chroma_me=1 / trellis=2 / 8x8dct=1 / cqm=0 / deadzone=21,11 / fast_pskip=0 / chroma_qp_offset=-3 / threads=6 / lookahead_threads=1 / sliced_threads=0 / nr=0 / decimate=1 / interlaced=0 / bluray_compat=0 / constrained_intra=0 / fgo=0 / bframes=11 / b_pyramid=2 / b_adapt=2 / b_bias=0 / direct=3 / weightb=1 / open_gop=0 / weightp=2 / keyint=250 / keyint_min=23 / scenecut=40 / intra_refresh=0 / rc_lookahead=60 / rc=crf / mbtree=0 / crf=17.2000 / qcomp=0.70 / qpmin=0:0:0 / qpmax=69:69:69 / qpstep=4 / vbv_maxrate=62500 / vbv_bufsize=78125 / crf_max=0.0 / nal_hrd=none / filler=0 / ip_ratio=1.40 / pb_ratio=1.30 / aq=1:0.75 / aq-sensitivity=10.00 / aq-factor=1.00:1.00:1.00 / aq2=0 / aq3=0Language : EnglishDefault : YesForced : NoColor range : LimitedColor primaries : BT.709Transfer characteristics : BT.709Matrix coefficients : BT.709DURATION : 01:52:21.777000000NUMBER_OF_FRAMES : 161641NUMBER_OF_BYTES : 7639557206_STATISTICS_WRITING_APP : mkvmerge v8.3.0 ('Over the Horizon') 64bit_STATISTICS_WRITING_DATE_UTC : 2015-11-01 15:53:25_STATISTICS_TAGS : BPS DURATION NUMBER_OF_FRAMES NUMBER_OF_BYTES
    Audio #1ID : 2Format : DTSFormat/Info : Digital Theater SystemsMode : 16Format settings, Endianness : BigCodec ID : A_DTSDuration : 1h 52mnBit rate mode : ConstantBit rate : 447 KbpsChannel(s) : 2 channelsChannel positions : Front: L RSampling rate : 48.0 KHzBit depth : 24 bitsCompression mode : LossyStream size : 359 MiB (4%)Title : Многоголосый закадровый, Blu-Ray EUR/R5Language : RussianDefault : YesForced : No
    Audio #2ID : 3Format : AC-3Format/Info : Audio Coding 3Mode extension : CM (complete main)Format settings, Endianness : BigCodec ID : A_AC3Duration : 1h 52mnBit rate mode : ConstantBit rate : 192 KbpsChannel(s) : 2 channelsChannel positions : Front: L RSampling rate : 48.0 KHzCompression mode : LossyStream size : 154 MiB (2%)Title : Одноголосый закадровый, МихалевLanguage : RussianDefault : NoForced : No
    Audio #3ID : 4Format : AC-3Format/Info : Audio Coding 3Mode extension : CM (complete main)Format settings, Endianness : BigCodec ID : A_AC3Duration : 1h 52mnBit rate mode : ConstantBit rate : 192 KbpsChannel(s) : 2 channelsChannel positions : Front: L RSampling rate : 48.0 KHzCompression mode : LossyStream size : 154 MiB (2%)Title : Одноголосый закадровый, ПронинLanguage : RussianDefault : NoForced : No
    Audio #4ID : 5Format : DTSFormat/Info : Digital Theater SystemsMode : 16Format settings, Endianness : BigCodec ID : A_DTSDuration : 1h 52mnBit rate mode : ConstantBit rate : 1 509 KbpsChannel(s) : 6 channelsChannel positions : Front: L C R, Side: L R, LFESampling rate : 48.0 KHzBit depth : 24 bitsCompression mode : LossyStream size : 1.18 GiB (13%)Title : Одноголосый закадровый, ЖивовLanguage : RussianDefault : NoForced : No
    Audio #5ID : 6Format : AC-3Format/Info : Audio Coding 3Mode extension : CM (complete main)Format settings, Endianness : BigCodec ID : A_AC3Duration : 1h 52mnBit rate mode : ConstantBit rate : 640 KbpsChannel(s) : 6 channelsChannel positions : Front: L C R, Side: L R, LFESampling rate : 48.0 KHzCompression mode : LossyStream size : 514 MiB (5%)Language : EnglishDefault : NoForced : No
    Text #1ID : 7Format : UTF-8Codec ID : S_TEXT/UTF8Codec ID/Info : UTF-8 Plain TextLanguage : RussianDefault : NoForced : No
    Text #2ID : 8Format : UTF-8Codec ID : S_TEXT/UTF8Codec ID/Info : UTF-8 Plain TextLanguage : EnglishDefault : NoForced : No
    Menu00:00:00.000 : en:00:00:00.00000:03:01.598 : en:00:03:01.59800:08:06.528 : en:00:08:06.52800:13:30.309 : en:00:13:30.30900:15:35.476 : en:00:15:35.47600:22:25.344 : en:00:22:25.34400:34:03.333 : en:00:34:03.33300:38:38.024 : en:00:38:38.02400:47:57.374 : en:00:47:57.37400:50:43.499 : en:00:50:43.49901:02:23.365 : en:01:02:23.36501:05:39.978 : en:01:05:39.97801:14:27.088 : en:01:14:27.08801:20:32.369 : en:01:20:32.36901:26:36.817 : en:01:26:36.81701:35:36.064 : en:01:35:36.06401:42:23.137 : en:01:42:23.13701:48:41.473 : en:01:48:41.473

    Скриншот с названием фильма

    Скриншоты

    Скачать .torrent

    Скачать торрент-файл бесплатно и на максимальной скорости!

    Как скачивать? · Что такое торрент? · Рейтинг и ограничения

    !ВНИМАНИЕ!
    Сайт не распространяет и не хранит электронные версии произведений, а занимается лишь лишь предоставлением доступа к создаваемому пользователями каталогу ссылок на торрент-файлы, которые содержат только списки хеш-сумм, убедительная просьба с жалобами обращаться напрямую к пользователю. Файлы для обмена на трекере предоставлены пользователями сайта, и администрация не несёт ответственности за их содержание. Просьба не заливать файлы, защищенные авторскими правами, а также файлы нелегального содержания!


    _________________
    [Профиль] [ЛС]
    Показать сообщения:    
    Ответить на тему

    Текущее время: Сегодня, в 00:06

    Часовой пояс: GMT + 2



    Вы не можете начинать темы
    Вы не можете отвечать на сообщения
    Вы не можете редактировать свои сообщения
    Вы не можете удалять свои сообщения
    Вы не можете голосовать в опросах
    Вы не можете прикреплять файлы к сообщениям
    Вы не можете скачивать файлы