BitTorrentTracker PerecTracker.org
BitTorrentTracker PerecTracker.org
    
Регистрация  ·  Вход
 
 · 
Забыли пароль?

  • Шлюха / Нефрит / Jade (Уильям Фридкин / William Friedkin) [1995, США, боевик, триллер, драма, криминал, BDRemux 1080p] MVO (ТВ3) + MVO (5 канал) + AVO (Юрий Живов) + AVO (Петр Карцев) + Sub Eng + Original Eng

    Ответить на тему
     
    Автор Сообщение

    Flirldrerve

    Создавать темы 26-Янв-2016 03:06

           

    [Цитировать]

    Шлюха / Нефрит / Jade
    -Страна: США
    Студия: Paramount Pictures
    Жанр: боевик, триллер, драма, криминал
    Год выпуска: 1995
    Продолжительность: 01:34:45-Перевод 1: Профессиональный (многоголосый закадровый) ТВ3
    Перевод 2: Профессиональный (многоголосый закадровый) 5 канал
    Перевод 3: Авторский (одноголосый закадровый) Юрий Живов
    Перевод 4: Авторский (одноголосый закадровый) Петр Карцев
    Cубтитры: английские
    Оригинальная аудиодорожка: английский-Режиссер: Уильям Фридкин / William Friedkin-В ролях: Дэвид Карузо, Линда Фиорентино, Чазз Пальминтери, Ричард Кренна, Майкл Бьен, Донна Мерфи, Кен Кинг, Холт МакКэллани, Дэвид Хант, Энджи Эверхарт-Описание: Есть люди, которые полагают, что существуют лишь три вещи, заставляющие крутиться этот прогнивший и порочный мир — деньги, секс и власть. Все остальное, включая жалость, совесть и честь, не имеет для них абсолютно никакого значения. Эти люди готовы пойти на многое во имя своих трех идолов. Но иногда случается, что в своих желаниях они заходят слишком далеко… Сотрудник прокуратуры Дэйвид Корелли расследует чудовищное по своей жестокости убийство. В своей шикарной вилле был страшно изуродован топором пожилой миллионер. Следователь Корелли — идеальная кандидатура для разрешения столь сложного преступления. Но есть лишь одна маленькая загвоздка: никто не хочет, чтобы это преступление было раскрыто…-Сэмпл | Kinopoisk | Imdb-Релиз:
    Тип релиза: BDRemux 1080p
    Контейнер: MKV-Видео: AVC High@L4.1 | 1920x1080 [16/9] | 23.976 fps | 26994 Kbps
    Аудио 1: Russian AC-3 | 6 ch | 48.0 KHz | 448 Kbps [ТВ3]
    Аудио 2: Russian AC-3 | 2 ch | 48.0 KHz | 192 Kbps [5 канал]
    Аудио 3: Russian AC-3 | 2 ch | 48.0 KHz | 192 Kbps [Живов]
    Аудио 4: Russian AC-3 | 2 ch | 48.0 KHz | 192 Kbps [Карцев]
    Аудио 5: English DTS-HD Master Audio | 5.1 | 48 kHz | 4336 kbps | 24-bit (DTS Core: 5.1 / 48 kHz / 1509 kbps / 24-bit)

    MediaInfo

    General
    Unique ID : 254306362833621137203371940909699394530 (0xBF519FB96A0F3E34A6DFB9543CFD6BE2)
    Complete name : H:\Jade.1995.BDRemux.1080p.mkv
    Format : Matroska
    Format version : Version 4 / Version 2
    File size : 21.4 GiB
    Duration : 1h 34mn
    Overall bit rate mode : Variable
    Overall bit rate : 32.4 Mbps
    Movie name : _@dvokat_
    Encoded date : UTC 2015-11-06 09:12:10
    Writing application : mkvmerge v8.5.1 ('Where you lead I will follow') 32bit
    Writing library : libebml v1.3.3 + libmatroska v1.4.4
    DURATION : 01:33:53.810000000
    NUMBER_OF_FRAMES : 905
    NUMBER_OF_BYTES : 28120
    _STATISTICS_WRITING_APP : mkvmerge v8.5.1 ('Where you lead I will follow') 32bit
    _STATISTICS_WRITING_DATE_UTC : 2015-11-06 09:12:10
    _STATISTICS_TAGS : BPS DURATION NUMBER_OF_FRAMES NUMBER_OF_BYTES
    Video
    ID : 1
    Format : AVC
    Format/Info : Advanced Video Codec
    Format profile : High@L4.1
    Format settings, CABAC : Yes
    Format settings, ReFrames : 4 frames
    Format settings, GOP : M=3, N=12
    Codec ID : V_MPEG4/ISO/AVC
    Duration : 1h 34mn
    Bit rate mode : Variable
    Maximum bit rate : 39.0 Mbps
    Width : 1 920 pixels
    Height : 1 080 pixels
    Display aspect ratio : 16:9
    Frame rate mode : Constant
    Frame rate : 23.976 fps
    Color space : YUV
    Chroma subsampling : 4:2:0
    Bit depth : 8 bits
    Scan type : Progressive
    Language : English
    Default : Yes
    Forced : No
    Color range : Limited
    Color primaries : BT.709
    Transfer characteristics : BT.709
    Matrix coefficients : BT.709
    Audio #1
    ID : 2
    Format : AC-3
    Format/Info : Audio Coding 3
    Mode extension : CM (complete main)
    Format settings, Endianness : Big
    Codec ID : A_AC3
    Duration : 1h 34mn
    Bit rate mode : Constant
    Bit rate : 448 Kbps
    Channel(s) : 6 channels
    Channel positions : Front: L C R, Side: L R, LFE
    Sampling rate : 48.0 KHz
    Compression mode : Lossy
    Stream size : 304 MiB (1%)
    Title : ТВ3
    Language : Russian
    Default : Yes
    Forced : Yes
    Audio #2
    ID : 3
    Format : AC-3
    Format/Info : Audio Coding 3
    Mode extension : CM (complete main)
    Format settings, Endianness : Big
    Codec ID : A_AC3
    Duration : 1h 34mn
    Bit rate mode : Constant
    Bit rate : 192 Kbps
    Channel(s) : 2 channels
    Channel positions : Front: L R
    Sampling rate : 48.0 KHz
    Compression mode : Lossy
    Stream size : 130 MiB (1%)
    Title : 5 канал
    Language : Russian
    Default : No
    Forced : No
    Audio #3
    ID : 4
    Format : AC-3
    Format/Info : Audio Coding 3
    Mode extension : CM (complete main)
    Format settings, Endianness : Big
    Codec ID : A_AC3
    Duration : 1h 34mn
    Bit rate mode : Constant
    Bit rate : 192 Kbps
    Channel(s) : 2 channels
    Channel positions : Front: L R
    Sampling rate : 48.0 KHz
    Compression mode : Lossy
    Stream size : 130 MiB (1%)
    Title : Живов
    Language : Russian
    Default : No
    Forced : No
    Audio #4
    ID : 5
    Format : AC-3
    Format/Info : Audio Coding 3
    Mode extension : CM (complete main)
    Format settings, Endianness : Big
    Codec ID : A_AC3
    Duration : 1h 34mn
    Bit rate mode : Constant
    Bit rate : 192 Kbps
    Channel(s) : 2 channels
    Channel positions : Front: L R
    Sampling rate : 48.0 KHz
    Compression mode : Lossy
    Stream size : 130 MiB (1%)
    Title : Карцев
    Language : Russian
    Default : No
    Forced : No
    Audio #5
    ID : 6
    Format : DTS
    Format/Info : Digital Theater Systems
    Codec ID : A_DTS
    Duration : 1h 34mn
    Channel(s) : 6 channels
    Sampling rate : 48.0 KHz
    Compression mode : Lossy
    Title : Original
    Language : English
    Default : No
    Forced : No
    Text
    ID : 7
    Format : UTF-8
    Codec ID : S_TEXT/UTF8
    Codec ID/Info : UTF-8 Plain Text
    Title : Eng
    Language : English
    Default : No
    Forced : No
    Menu
    00:00:00.000 : en:Chapter 1
    00:05:14.022 : en:Chapter 2
    00:09:18.266 : en:Chapter 3
    00:17:45.814 : en:Chapter 4
    00:24:19.166 : en:Chapter 5
    00:28:11.898 : en:Chapter 6
    00:31:32.599 : en:Chapter 7
    00:36:57.089 : en:Chapter 8
    00:39:55.017 : en:Chapter 9
    00:50:41.621 : en:Chapter 10
    00:53:53.605 : en:Chapter 11
    01:01:44.075 : en:Chapter 12
    01:05:42.855 : en:Chapter 13
    01:13:55.222 : en:Chapter 14
    01:20:53.056 : en:Chapter 15
    01:28:51.451 : en:Chapter 16

    Скриншоты


    Скачать .torrent

    Скачать торрент-файл бесплатно и на максимальной скорости!

    Как скачивать? · Что такое торрент? · Рейтинг и ограничения

    !ВНИМАНИЕ!
    Сайт не распространяет и не хранит электронные версии произведений, а занимается лишь лишь предоставлением доступа к создаваемому пользователями каталогу ссылок на торрент-файлы, которые содержат только списки хеш-сумм, убедительная просьба с жалобами обращаться напрямую к пользователю. Файлы для обмена на трекере предоставлены пользователями сайта, и администрация не несёт ответственности за их содержание. Просьба не заливать файлы, защищенные авторскими правами, а также файлы нелегального содержания!


    _________________
    [Профиль] [ЛС]
    Показать сообщения:    
    Ответить на тему

    Текущее время: Сегодня, в 00:03

    Часовой пояс: GMT + 2



    Вы не можете начинать темы
    Вы не можете отвечать на сообщения
    Вы не можете редактировать свои сообщения
    Вы не можете удалять свои сообщения
    Вы не можете голосовать в опросах
    Вы не можете прикреплять файлы к сообщениям
    Вы не можете скачивать файлы