BitTorrentTracker PerecTracker.org
BitTorrentTracker PerecTracker.org
    
Регистрация  ·  Вход
 
 · 
Забыли пароль?

  • Побег из Гулага / So weit die Füße tragen (Харди Мартыньш / Hardy Martins) [2001, Германия, драма, военный, BDRemux 1080p] DVO + original (ger) + sub (rus, eng)

    Ответить на тему
     
    Автор Сообщение

    Flirldrerve

    Создавать темы 26-Янв-2016 03:06

           

    [Цитировать]

    Побег из Гулага / So weit die Füße tragen
    Год выпуска: 2001
    Страна: Германия
    Жанр: драма, военный
    Продолжительность: 02:38:46
    Перевод: Профессиональный (двухголосый закадровый)
    Субтитры: русские, английские
    Оригинальная аудиодорожка: немецкий
    Режиссер: Харди Мартыньш / Hardy Martins
    В ролях: Бернхард Беттерманн (Clemens Forell), Михаэль Мендль (Dr. Stauffer), Анатолий Котенев (Kamenev), Ирина Пантаева (Irina), Ирис Бом (Kathrin), Анна Хэрман (Lieschen), Адалберт Майер (Pfarrer), Ганс Питер Халльвахс (Onkel Baudrexel), Егор Абросимов, Ханс-Уве Бауэр (Leibrecht), Simon Beckord (Frieder), Игорь Фильченков (Anastas)
    Описание: На что способен человек в самых экстремальных и невыносимых условиях? Практически на все, если не сломлен его дух. Человеческий дух, внутренняя сила, которая не дает человеку сдаться даже в самых отчаянных ситуациях. Именно про него и рассказывает этот фильм. Немецкий военнопленный Форель был приговорен к заключению на мысе Дежнева. Проработав четыре года на шахтах, он в 1949 году бежал из лагеря. Преследуемый НКВД, он шел через всю Сибирь и Среднюю Азию к иранской границе. 14 тысяч километров и три бесконечных года, проведенных в странствиях, не смогли сломать его стремление к свободе. Воспевания дифирамбы человеческому духу, фильм показывает то, на что не решился бы сам Федор Конюхов. Питаясь практически одним святым духом, и лелея надежду о встрече с семьей, герой фильма пересек на своих двоих практически через всю Россию. А это надо сказать, не так уж слабо. И то, через что ему пришлось пройти, не пожелаешь и врагу. Одним словом, настоящий мужик! Мороз - 40, бескрайние поля, сменяющиеся, населенными хищниками леса . вот она русская Сибирь! Место, куда ссылались многие русские гении, в нем нет места слабакам. Сибирь, это место, где приходится учиться справляться с местными климатическими условиями, и особенностями русской природы. А коль не сможешь, то лучше сюда не соваться. Жестокий, реалистичный, захватывающий, этот фильм русско-немецкого производства, покажет вам каково быть военнопленным на другом конце света. Получивший несколько призов на разных фестивалях, Побег из Гулага является экранизацией бестселлера Йозефа Мартина Бауэра, переведенного на 15 языков и выпущенного тиражом 30 миллионов экземпляров.

    Качество: BDRemux 1080p
    Формат: MKV
    Видео кодек: H.264
    Аудио кодек: AC3, DTS-HD, DTS
    Видео: 1920 x 1080 / 24980 kbps / 1080p / 23,976 fps / 16:9 / High Profile 4.1
    Аудио1: Русский / AC3 / 5.1 / 384 Kbps / 48,0 kHz (DVO)
    Аудио2: German / 5.1 / 48 kHz / 3629 kbps / 24-bit (DTS Core: 5.1 / 48 kHz / 1509 kbps / 24-bit (Original)
    Аудио3: German / DTS / 2.0 / 48 kHz / 320 kbps (Commentary)
    Субтитры: Soft Sub (SRT)
    Главы

    MediaInfo

    Общее
    Уникальный идентификатор : 221086680971607092429139042271878817242 (0xA653BEF48981C330B2FDC33BE32DA5DA)
    Полное имя : G:\So.weit.die.Fube.tragen.2001.BDRemux.1080p.Rus.Ger.mkv
    Формат : Matroska
    Версия формата : Version 4 / Version 2
    Размер файла : 32,4 Гбайт
    Продолжительность : 2 ч. 38 м.
    Режим общего битрейта : Переменный
    Общий поток : 29,2 Мбит/сек
    Название фильма : So weit die Füße tragen
    Дата кодирования : UTC 2015-11-07 14:38:46
    Программа кодирования : mkvmerge v7.3.0 ('Nouages') 32bit built on Oct 22 2014 18:44:01
    Библиотека кодирования : libebml v1.3.0 + libmatroska v1.4.1
    DURATION : 02:32:19.768000000
    NUMBER_OF_FRAMES : 746
    NUMBER_OF_BYTES : 22282
    _STATISTICS_WRITING_APP : mkvmerge v7.3.0 ('Nouages') 32bit built on Oct 22 2014 18:44:01
    _STATISTICS_WRITING_DATE_UTC : 2015-11-07 14:38:46
    _STATISTICS_TAGS : BPS DURATION NUMBER_OF_FRAMES NUMBER_OF_BYTES
    Видео
    Идентификатор : 1
    Формат : AVC
    Формат/Информация : Advanced Video Codec
    Профиль формата : High@L4.1
    Параметр CABAC формата : Да
    Параметр ReFrames формата : 4 кадра
    Идентификатор кодека : V_MPEG4/ISO/AVC
    Продолжительность : 2 ч. 38 м.
    Вид битрейта : Переменный
    Максимальный битрейт : 35,0 Мбит/сек
    Ширина : 1920 пикселей
    Высота : 1080 пикселей
    Соотношение сторон : 16:9
    Режим частоты кадров : Постоянный
    Частота кадров : 23,976 кадра/сек
    Цветовое пространство : YUV
    Субдискретизация насыщенности : 4:2:0
    Битовая глубина : 8 бит
    Тип развёртки : Прогрессивная
    Заголовок : So weit die Füße tragen 2001 1080p Blu-ray AVC DTS-HD MA 5.1
    Default : Нет
    Forced : Нет
    Аудио #1
    Идентификатор : 2
    Формат : AC-3
    Формат/Информация : Audio Coding 3
    Расширение режима : CM (complete main)
    Параметр Endianness формата : Big
    Идентификатор кодека : A_AC3
    Продолжительность : 2 ч. 38 м.
    Вид битрейта : Постоянный
    Битрейт : 384 Кбит/сек
    Каналы : 6 каналов
    Расположение каналов : Front: L C R, Side: L R, LFE
    Частота : 48,0 КГц
    Метод сжатия : С потерями
    Размер потока : 436 Мбайт (1%)
    Заголовок : DVO AC3 5.1 384 kbps
    Язык : Russian
    Default : Нет
    Forced : Нет
    Аудио #2
    Идентификатор : 3
    Формат : DTS
    Формат/Информация : Digital Theater Systems
    Профиль формата : MA / Core
    Режим : 16
    Параметр Endianness формата : Big
    Идентификатор кодека : A_DTS
    Продолжительность : 2 ч. 38 м.
    Вид битрейта : Переменный
    Битрейт : Неизвестно / 1509 Кбит/сек
    Каналы : 6 каналов
    Расположение каналов : Front: L C R, Side: L R, LFE
    Частота : 48,0 КГц
    Битовая глубина : 24 бит
    Метод сжатия : Без потерь / Lossy
    Заголовок : Original DTS-HD MA 5.1 3629 kbps
    Язык : German
    Default : Нет
    Forced : Нет
    Аудио #3
    Идентификатор : 4
    Формат : DTS
    Формат/Информация : Digital Theater Systems
    Режим : 16
    Параметр Endianness формата : Big
    Идентификатор кодека : A_DTS
    Продолжительность : 2 ч. 38 м.
    Вид битрейта : Постоянный
    Битрейт : 318 Кбит/сек
    Каналы : 2 канала
    Расположение каналов : Front: L R
    Частота : 48,0 КГц
    Битовая глубина : 24 бит
    Метод сжатия : С потерями
    Размер потока : 361 Мбайт (1%)
    Заголовок : Commentary DTS 2.0 320 kbps
    Язык : German
    Default : Нет
    Forced : Нет
    Текст #1
    Идентификатор : 5
    Формат : UTF-8
    Идентификатор кодека : S_TEXT/UTF8
    Идентификатор кодека/Информация : UTF-8 Plain Text
    Язык : Russian
    Default : Нет
    Forced : Нет
    Текст #2
    Идентификатор : 6
    Формат : UTF-8
    Идентификатор кодека : S_TEXT/UTF8
    Идентификатор кодека/Информация : UTF-8 Plain Text
    Язык : English
    Default : Нет
    Forced : Нет
    Меню
    00:00:00.000 : en:00:00:00.000
    00:07:35.413 : en:00:07:35.413
    00:16:16.726 : en:00:16:16.726
    00:26:47.856 : en:00:26:47.856
    00:29:37.401 : en:00:29:37.401
    00:35:00.849 : en:00:35:00.849
    00:46:32.289 : en:00:46:32.289
    00:50:15.095 : en:00:50:15.095
    01:07:50.733 : en:01:07:50.733
    01:15:38.951 : en:01:15:38.951
    01:19:06.575 : en:01:19:06.575
    01:29:01.169 : en:01:29:01.169
    01:47:55.552 : en:01:47:55.552
    01:53:25.340 : en:01:53:25.340
    02:01:05.884 : en:02:01:05.884
    02:13:06.854 : en:02:13:06.854
    02:18:36.767 : en:02:18:36.767
    02:25:06.615 : en:02:25:06.615
    02:28:53.925 : en:02:28:53.925
    02:32:57.919 : en:02:32:57.919

    Скриншоты

    Скачать .torrent

    Скачать торрент-файл бесплатно и на максимальной скорости!

    Как скачивать? · Что такое торрент? · Рейтинг и ограничения

    !ВНИМАНИЕ!
    Сайт не распространяет и не хранит электронные версии произведений, а занимается лишь лишь предоставлением доступа к создаваемому пользователями каталогу ссылок на торрент-файлы, которые содержат только списки хеш-сумм, убедительная просьба с жалобами обращаться напрямую к пользователю. Файлы для обмена на трекере предоставлены пользователями сайта, и администрация не несёт ответственности за их содержание. Просьба не заливать файлы, защищенные авторскими правами, а также файлы нелегального содержания!


    _________________
    [Профиль] [ЛС]
    Показать сообщения:    
    Ответить на тему

    Текущее время: Сегодня, в 22:22

    Часовой пояс: GMT + 2



    Вы не можете начинать темы
    Вы не можете отвечать на сообщения
    Вы не можете редактировать свои сообщения
    Вы не можете удалять свои сообщения
    Вы не можете голосовать в опросах
    Вы не можете прикреплять файлы к сообщениям
    Вы не можете скачивать файлы