BitTorrentTracker PerecTracker.org
BitTorrentTracker PerecTracker.org
    
Регистрация  ·  Вход
 
 · 
Забыли пароль?

  • Свидание с ангелом / Date with an Angel (Том МакЛафлин / Tom McLoughlin) [1987, США, комедия, фэнтези, WEB-DL 720p] MVO + DVO + AVO + Sub Eng + Original Eng

    Ответить на тему
     
    Автор Сообщение

    Flirldrerve

    Создавать темы 26-Янв-2016 03:06

           

    [Цитировать]

    Свидание с ангелом / Date with an Angel
    Страна: США
    Студия: De Laurentiis Entertainment Group (DEG), De Laurentiis Film Partners
    Жанр: комедия, фэнтези
    Год выпуска: 1987
    Продолжительность: 01:45:23
    Перевод 1: Профессиональный (многоголосый закадровый) т/к Россия
    Перевод 2: Профессиональный (двухголосый закадровый) Екатеринбург Арт
    Перевод 3: Авторский (одноголосый закадровый) Юрий Живов
    Cубтитры: английские
    Оригинальная аудиодорожка: английский
    Режиссер: Том МакЛафлин / Tom McLoughlin
    В ролях: Майкл И. Найт, Фиби Кэйтс, Эмманюэль Беар, Дэвид Дьюкс, Биби Беш, Пит Ковэнко, Фил Брок, Алберт Маклин, Винни Аргиро, Стивен Бэнкс, Чарлз Лэйн, Том МакЛафлин и др.
    Описание: Женитьба молодого музыканта оказывается под угрозой, когда в его бассейн падает с небес девушка-ангел со сломаным крылом. Мало того, что его невеста не верит его объяснениям, его друзья и будущий тесть пытаются похитить ангела, чтобы использовать в рекламных целях.
    II Сэмпл II IMDB II
    Доп. информация:
    За предоставленный исходник спасибо rufedosenkos
    За перевод Юрия Живова спасибо sasikainen
    Переводы т/к Россия и Екатеринбург Арт взяты с раздачи dvdbox
    Тип релиза: WEB-DL 720p
    Контейнер: MKV
    Видео: AVC / 1280x536 / 2.39:1 / 23.976fps / Bit rate 3960Kbps
    Аудио 1: AC3 / 48.0 KHz / 2ch. / 192kbps / rus / MVO / т/к Россия
    Аудио 2: AC3 / 48.0 KHz / 2ch. / 192kbps / rus / DVO / Екатеринбург Арт
    Аудио 3: AC3 / 48.0 KHz / 2ch. / 192kbps / rus / AVO / Юрий Живов
    Аудио 4: AAC-LC / 48.0 KHz / 2ch. / 128kbps / eng
    Формат субтитров: softsub (SRT)

    MediaInfo

    Общее
    Уникальный идентификатор : 227153445716812997601562321452108898836 (0xAAE4298CFEEC4BC4A6C424306D6C6214)
    Полное имя : G:\!!!_torrent\Date.With.an.Angel.1987.WEB-DL.720p_by_vedigo.mkv
    Формат : Matroska
    Версия формата : Version 4 / Version 2
    Размер файла : 3,49 Гбайт
    Продолжительность : 1 ч. 45 м.
    Общий поток : 4746 Кбит/сек
    Название фильма : Date.With.an.Angel.1987.WEB-DL.720p_by_vedigo
    Дата кодирования : UTC 2015-11-09 06:37:54
    Программа кодирования : mkvmerge v8.5.2 ('Crosses') 64bit
    Библиотека кодирования : libebml v1.3.3 + libmatroska v1.4.4
    DURATION : 01:44:51.565000000
    NUMBER_OF_FRAMES : 1631
    NUMBER_OF_BYTES : 43746
    _STATISTICS_WRITING_APP : mkvmerge v8.5.2 ('Crosses') 64bit
    _STATISTICS_WRITING_DATE_UTC : 2015-11-09 06:37:54
    _STATISTICS_TAGS : BPS DURATION NUMBER_OF_FRAMES NUMBER_OF_BYTES
    Видео
    Идентификатор : 1
    Формат : AVC
    Формат/Информация : Advanced Video Codec
    Профиль формата : Main@L3.1
    Параметр CABAC формата : Нет
    Параметр ReFrames формата : 2 кадра
    Идентификатор кодека : V_MPEG4/ISO/AVC
    Продолжительность : 1 ч. 45 м.
    Ширина : 1280 пикселей
    Высота : 536 пикселей
    Соотношение сторон : 2,40:1
    Режим частоты кадров : Постоянный
    Частота кадров : 23,976 кадра/сек
    Цветовое пространство : YUV
    Субдискретизация насыщенности : 4:2:0
    Битовая глубина : 8 бит
    Тип развёртки : Прогрессивная
    Заголовок : Date.With.an.Angel.1987.WEB-DL.720p_by_vedigo
    Default : Да
    Forced : Нет
    Цветовой диапазон : Limited
    Основные цвета : BT.709
    Характеристики трансфера : BT.709
    Коэффициенты матрицы : BT.709
    Аудио #1
    Идентификатор : 2
    Формат : AC-3
    Формат/Информация : Audio Coding 3
    Расширение режима : CM (complete main)
    Параметр Endianness формата : Big
    Идентификатор кодека : A_AC3
    Продолжительность : 1 ч. 45 м.
    Вид битрейта : Постоянный
    Битрейт : 192 Кбит/сек
    Каналы : 2 канала
    Расположение каналов : Front: L R
    Частота : 48,0 КГц
    Метод сжатия : С потерями
    Размер потока : 145 Мбайт (4%)
    Заголовок : MVO
    Язык : Russian
    Default : Да
    Forced : Нет
    Аудио #2
    Идентификатор : 3
    Формат : AC-3
    Формат/Информация : Audio Coding 3
    Расширение режима : CM (complete main)
    Параметр Endianness формата : Big
    Идентификатор кодека : A_AC3
    Продолжительность : 1 ч. 45 м.
    Вид битрейта : Постоянный
    Битрейт : 192 Кбит/сек
    Каналы : 2 канала
    Расположение каналов : Front: L R
    Частота : 48,0 КГц
    Метод сжатия : С потерями
    Размер потока : 145 Мбайт (4%)
    Заголовок : DVO
    Язык : Russian
    Default : Нет
    Forced : Нет
    Аудио #3
    Идентификатор : 4
    Формат : AC-3
    Формат/Информация : Audio Coding 3
    Расширение режима : CM (complete main)
    Параметр Endianness формата : Big
    Идентификатор кодека : A_AC3
    Продолжительность : 1 ч. 45 м.
    Вид битрейта : Постоянный
    Битрейт : 192 Кбит/сек
    Каналы : 2 канала
    Расположение каналов : Front: L R
    Частота : 48,0 КГц
    Метод сжатия : С потерями
    Размер потока : 145 Мбайт (4%)
    Заголовок : AVO @ Юрий Живов
    Язык : Russian
    Default : Нет
    Forced : Нет
    Аудио #4
    Идентификатор : 5
    Формат : AAC
    Формат/Информация : Advanced Audio Codec
    Профиль формата : LC
    Идентификатор кодека : A_AAC
    Продолжительность : 1 ч. 45 м.
    Каналы : 2 канала
    Расположение каналов : Front: L R
    Частота : 48,0 КГц
    Метод сжатия : С потерями
    Заголовок : original
    Язык : English
    Default : Нет
    Forced : Нет
    Текст
    Идентификатор : 6
    Формат : UTF-8
    Идентификатор кодека : S_TEXT/UTF8
    Идентификатор кодека/Информация : UTF-8 Plain Text
    Заголовок : subtitle eng
    Язык : English
    Default : Нет
    Forced : Нет
    Меню
    00:00:00.000 : en:1
    00:07:38.000 : en:2
    00:15:16.000 : en:3
    00:23:20.000 : en:4
    00:32:27.000 : en:5
    00:39:56.000 : en:6
    00:48:46.000 : en:7
    00:57:08.000 : en:8
    01:06:56.000 : en:9
    01:15:52.000 : en:10
    01:22:51.000 : en:11
    01:28:22.000 : en:12
    01:34:16.000 : en:13
    01:41:57.000 : en:14

    Скриншоты


    Скачать .torrent

    Скачать торрент-файл бесплатно и на максимальной скорости!

    Как скачивать? · Что такое торрент? · Рейтинг и ограничения

    !ВНИМАНИЕ!
    Сайт не распространяет и не хранит электронные версии произведений, а занимается лишь лишь предоставлением доступа к создаваемому пользователями каталогу ссылок на торрент-файлы, которые содержат только списки хеш-сумм, убедительная просьба с жалобами обращаться напрямую к пользователю. Файлы для обмена на трекере предоставлены пользователями сайта, и администрация не несёт ответственности за их содержание. Просьба не заливать файлы, защищенные авторскими правами, а также файлы нелегального содержания!


    _________________
    [Профиль] [ЛС]
    Показать сообщения:    
    Ответить на тему

    Текущее время: Сегодня, в 10:37

    Часовой пояс: GMT + 2



    Вы не можете начинать темы
    Вы не можете отвечать на сообщения
    Вы не можете редактировать свои сообщения
    Вы не можете удалять свои сообщения
    Вы не можете голосовать в опросах
    Вы не можете прикреплять файлы к сообщениям
    Вы не можете скачивать файлы