BitTorrentTracker PerecTracker.org
BitTorrentTracker PerecTracker.org
    
Регистрация  ·  Вход
 
 · 
Забыли пароль?

  • Роллеры / Roll Bounce (Малкольм Д. Ли / Malcolm D. Lee) [2005, США, драма, мелодрама, комедия, музыка, HDTV 1080i] MVO

    Ответить на тему
     
    Автор Сообщение

    Flirldrerve

    Создавать темы 26-Янв-2016 03:05

           

    [Цитировать]

    Роллеры / Roll Bounce
    Страна: США
    Жанр: драма, мелодрама, комедия, музыка
    Год выпуска: 2005
    Продолжительность: 01:43:56
    Перевод: Профессиональный (многоголосый закадровый)
    Cубтитры: нет
    Оригинальная аудиодорожка: нет
    Режиссер: Малкольм Д. Ли / Malcolm D. Lee
    В ролях: Бау Вау, Чи МакБрайд, Миган Гуд, Уэсли Джонатан, Маркус Т. Полк, Рик Гонсалес, Джерни Смоллетт, Брэндон Т. Джексон, Хлео Томас, Келлита Смит, Майк Эппс, Чарльз К. Мерфи, Ник Кэннон
    Описание: 1970-е. Главным увлечением юного Икса и его приятелей являются роликовые коньки и надо сказать, что они достигли в этом виде спорта немалых успехов, по праву считаясь самой продвинутой командой в округе. Но приходят трудные времена. Прекращает существование их домашняя тренировочная база, что, конечно же, заставляет друзей призадуматься. Решение находится. Их новым пристанищем для тренировок становится скейт-каток Свитвотер. Именно здесь дворовые роллеры смогут по-настоящему раскрыть свой талант, обучившись самым невероятным трюкам, а так же завести приятные знакомства с очаровательными девчонками, восхищенно следящими за каждым шагом отважных экстремалов.
    Доп. информация: По сравнению с DVD картинка обрезана, а по качеству - сравнить не с чем, только если с DVDRip
    Сэмпл: http://multi-up.com/1079414
    Тип релиза: HDTV 1080i
    Контейнер: TS
    Видео: AVC, 1920x1080 (16:9), 25.000 fps, 10.1 Mbps (0.194 bit/pixel)
    Аудио: MP2, 48.0 KHz, 2 ch, 192 Kbps, CBR (Russian)

    MediaInfo

    Общее
    Идентификатор : 3 (0x3)
    Полное имя : N:\МОИ РАЗДАЧИ\Роллеры.ts
    Формат : MPEG-TS
    Размер файла : 7,83 Гбайт
    Продолжительность : 1 ч. 43 м.
    Режим общего битрейта : Переменный
    Общий поток : 10,8 Мбит/сек
    Видео
    Идентификатор : 2141 (0x85D)
    Идентификатор меню : 21004 (0x520C)
    Формат : AVC
    Формат/Информация : Advanced Video Codec
    Профиль формата : Main@L4
    Параметр CABAC формата : Да
    Параметр ReFrames формата : 3 кадра
    Идентификатор кодека : 27
    Продолжительность : 1 ч. 43 м.
    Битрейт : 10,1 Мбит/сек
    Ширина : 1920 пикселей
    Высота : 1080 пикселей
    Соотношение сторон : 16:9
    Частота кадров : 25,000 кадров/сек
    Стандарт вещания : Component
    Цветовое пространство : YUV
    Субдискретизация насыщенности : 4:2:0
    Битовая глубина : 8 бит
    Тип развёртки : Чересстрочная
    Порядок развёртки : Верхнее поле первое
    Бит/(Пиксели*Кадры) : 0.194
    Размер потока : 7,31 Гбайт (93%)
    Цветовой диапазон : Limited
    Основные цвета : BT.709
    Характеристики трансфера : BT.709
    Коэффициенты матрицы : BT.709
    Аудио
    Идентификатор : 2142 (0x85E)
    Идентификатор меню : 21004 (0x520C)
    Формат : MPEG Audio
    Версия формата : Version 1
    Профиль формата : Layer 2
    Идентификатор кодека : 4
    Продолжительность : 1 ч. 43 м.
    Вид битрейта : Постоянный
    Битрейт : 192 Кбит/сек
    Каналы : 2 канала
    Частота : 48,0 КГц
    Метод сжатия : С потерями
    Задержка видео : -15 мс.
    Размер потока : 143 Мбайт (2%)
    Язык : Russian

    Скриншоты

    Скачать .torrent

    Скачать торрент-файл бесплатно и на максимальной скорости!

    Как скачивать? · Что такое торрент? · Рейтинг и ограничения

    !ВНИМАНИЕ!
    Сайт не распространяет и не хранит электронные версии произведений, а занимается лишь лишь предоставлением доступа к создаваемому пользователями каталогу ссылок на торрент-файлы, которые содержат только списки хеш-сумм, убедительная просьба с жалобами обращаться напрямую к пользователю. Файлы для обмена на трекере предоставлены пользователями сайта, и администрация не несёт ответственности за их содержание. Просьба не заливать файлы, защищенные авторскими правами, а также файлы нелегального содержания!


    _________________
    [Профиль] [ЛС]
    Показать сообщения:    
    Ответить на тему

    Текущее время: Сегодня, в 14:51

    Часовой пояс: GMT + 2



    Вы не можете начинать темы
    Вы не можете отвечать на сообщения
    Вы не можете редактировать свои сообщения
    Вы не можете удалять свои сообщения
    Вы не можете голосовать в опросах
    Вы не можете прикреплять файлы к сообщениям
    Вы не можете скачивать файлы