BitTorrentTracker PerecTracker.org
BitTorrentTracker PerecTracker.org
    
Регистрация  ·  Вход
 
 · 
Забыли пароль?

  • Эверест / Everest (Бальтасар Кормакур / Baltasar Kormákur) [2015, США, Великобритания, Исландия, триллер, драма, приключения, биография, история, BDRip 720p] Dub (BD CEE) + Sub Rus, Eng + Original Eng

    Ответить на тему
     
    Автор Сообщение

    Flirldrerve

    Создавать темы 26-Янв-2016 03:05

           

    [Цитировать]

    Эверест / Everest
    Страна: США, Великобритания, Исландия
    Жанр: триллер, драма, приключения, биография, история
    Год выпуска: 2015
    Продолжительность: 02:01:10
      -Перевод: Профессиональный (дублированный) BD CEE
      Cубтитры: русские, английские, украинские
      Оригинальная аудиодорожка: английский
        -Режиссер: Бальтасар Кормакур / Baltasar Kormákur
          -В ролях: Джейсон Кларк, Джош Бролин, Джейк Джилленхол, Сэм Уортингтон, Джон Хоукс, Майкл Келли, Ингвар Эггерт Сигюрдссон, Кира Найтли, Эмили Уотсон, Робин Райт
          Описание: Эверест — великая неприступная гора, покорить вершину которой мечтают многие профессиональные альпинисты. Одна из экспедиций на ее вершину закончилась настоящей трагедией, однако этот факт не останавливает отважных альпинистов.
          Опытный инструктор Роб Холл, собрав группу из лучших альпинистов, собирается совершить восхождение на самую высокую вершину планеты. Все эти люди полны мужества и отваги и они не остановятся ни перед чем, пока не поднимутся на вершину Эвереста. Но даже если эта гора покорится им, смогут ли они вернуться обратно живыми и невредимыми?
            -Релиз от:
              -Тип релиза: BDRip 720p
              Контейнер: MKV
                -Видео: 1280x536 (2,40:1), 23,976 fps, MPEG-4 AVC, ~ 5160 kbps
                  -Аудио 1: Russian: 48 kHz, AC3, 3/2 (L,C,R,l,r) + LFE ch, ~ 448.00 kbps avg
                  Аудио 2: English: 48 kHz, DTS, 3/3 (L,C,R,l,c,r) + LFE ch, ~1509.00 kbps avg
                  Аудио 3: English: 48 kHz, AC3, 2/0 (L,R) ~ 192.00 kbps avg Commentary

                  MediaInfo

                  Общее
                  Уникальный идентификатор : 219690354806481494342260397483208593689 (0xA546D2C2935159A48B8AC1C54865D119)
                  Полное имя : D:\Everest BDRip 720\Everest.2015.720p.BluRay.Rus.2xEng.HDCLUB.mkv
                  Формат : Matroska
                  Версия формата : Version 2
                  Размер файла : 6,31 Гбайт
                  Продолжительность : 2 ч. 1 м.
                  Общий поток : 7458 Кбит/сек
                  Название фильма : Everest (2015) - Release for HDCLUB
                  Дата кодирования : UTC 2015-12-16 09:26:54
                  Программа кодирования : mkvmerge v3.4.0 ('Rapunzel') built on May 15 2010 09:38:20
                  Библиотека кодирования : libebml v0.8.0 + libmatroska v0.9.0
                  Видео
                  Идентификатор : 1
                  Формат : AVC
                  Формат/Информация : Advanced Video Codec
                  Профиль формата : High@L4.1
                  Параметр CABAC формата : Да
                  Параметр ReFrames формата : 12 кадров
                  Идентификатор кодека : V_MPEG4/ISO/AVC
                  Продолжительность : 2 ч. 1 м.
                  Битрейт : 5160 Кбит/сек
                  Ширина : 1280 пикселей
                  Высота : 536 пикселей
                  Соотношение сторон : 2,40:1
                  Режим частоты кадров : Постоянный
                  Частота кадров : 23,976 кадра/сек
                  Цветовое пространство : YUV
                  Субдискретизация насыщенности : 4:2:0
                  Битовая глубина : 8 бит
                  Тип развёртки : Прогрессивная
                  Бит/(Пиксели*Кадры) : 0.314
                  Размер потока : 4,37 Гбайт (69%)
                  Заголовок : Everest (2015) - Release for HDCLUB
                  Библиотека кодирования : x264 core 142 r2431+42 c69a006 tMod [8-bit@all X86]
                  Настройки программы : cabac=1 / ref=12 / deblock=1:-3:-3 / analyse=0x3:0x133 / me=umh / subme=11 / psy=1 / fade_compensate=0.00 / psy_rd=1.00:0.00 / mixed_ref=1 / me_range=48 / chroma_me=1 / trellis=2 / 8x8dct=1 / cqm=0 / deadzone=21,11 / fast_pskip=0 / chroma_qp_offset=-2 / threads=24 / lookahead_threads=4 / sliced_threads=0 / nr=0 / decimate=1 / interlaced=0 / bluray_compat=0 / constrained_intra=0 / fgo=0 / bframes=9 / b_pyramid=2 / b_adapt=2 / b_bias=0 / direct=1 / weightb=1 / open_gop=0 / weightp=2 / keyint=240 / keyint_min=23 / scenecut=40 / intra_refresh=0 / rc_lookahead=60 / rc=crf / mbtree=0 / crf=15.3000 / qcomp=0.60 / qpmin=0:0:0 / qpmax=69:69:69 / qpstep=4 / vbv_maxrate=50000 / vbv_bufsize=62500 / crf_max=0.0 / nal_hrd=none / filler=0 / ip_ratio=1.35 / pb_ratio=1.25 / aq=4:0.80 / aq-sensitivity=10.00 / aq-factor=1.00:1.00:1.00 / aq2=0 / aq3=0
                  Язык : English
                  Default : Да
                  Forced : Нет
                  Аудио #1
                  Идентификатор : 2
                  Формат : AC-3
                  Формат/Информация : Audio Coding 3
                  Расширение режима : CM (complete main)
                  Параметр Endianness формата : Big
                  Идентификатор кодека : A_AC3
                  Продолжительность : 2 ч. 1 м.
                  Вид битрейта : Постоянный
                  Битрейт : 448 Кбит/сек
                  Каналы : 6 каналов
                  Расположение каналов : Front: L C R, Side: L R, LFE
                  Частота : 48,0 КГц
                  Битовая глубина : 16 бит
                  Метод сжатия : С потерями
                  Размер потока : 388 Мбайт (6%)
                  Заголовок : AC3 5.1 @ 448 kbps - DUB, Blu-ray CEE
                  Язык : Russian
                  Default : Да
                  Forced : Нет
                  Аудио #2
                  Идентификатор : 3
                  Формат : DTS
                  Формат/Информация : Digital Theater Systems
                  Режим : 16
                  Параметр Endianness формата : Big
                  Идентификатор кодека : A_DTS
                  Продолжительность : 2 ч. 1 м.
                  Вид битрейта : Постоянный
                  Битрейт : 1509 Кбит/сек
                  Каналы : 6 каналов
                  Расположение каналов : Front: L C R, Side: L R, LFE
                  Частота : 48,0 КГц
                  Битовая глубина : 24 бит
                  Метод сжатия : С потерями
                  Размер потока : 1,28 Гбайт (20%)
                  Заголовок : DTS 5.1 @ 1536 kbps
                  Язык : English
                  Default : Нет
                  Forced : Нет
                  Аудио #3
                  Идентификатор : 4
                  Формат : AC-3
                  Формат/Информация : Audio Coding 3
                  Профиль формата : Dolby Digital
                  Расширение режима : CM (complete main)
                  Параметр Endianness формата : Big
                  Идентификатор кодека : A_AC3
                  Продолжительность : 2 ч. 1 м.
                  Вид битрейта : Постоянный
                  Битрейт : 192 Кбит/сек
                  Каналы : 2 канала
                  Расположение каналов : Front: L R
                  Частота : 48,0 КГц
                  Битовая глубина : 16 бит
                  Метод сжатия : С потерями
                  Размер потока : 166 Мбайт (3%)
                  Заголовок : AC3 2.0 @ 192 kbps - Feature Commentary with Director Baltasar Kormákur
                  Язык : English
                  Default : Нет
                  Forced : Нет
                  Текст #1
                  Идентификатор : 5
                  Формат : UTF-8
                  Идентификатор кодека : S_TEXT/UTF8
                  Идентификатор кодека/Информация : UTF-8 Plain Text
                  Заголовок : Forced, iTunes
                  Язык : Russian
                  Default : Да
                  Forced : Нет
                  Текст #2
                  Идентификатор : 6
                  Формат : UTF-8
                  Идентификатор кодека : S_TEXT/UTF8
                  Идентификатор кодека/Информация : UTF-8 Plain Text
                  Заголовок : iTunes
                  Язык : Russian
                  Default : Нет
                  Forced : Нет
                  Текст #3
                  Идентификатор : 7
                  Формат : UTF-8
                  Идентификатор кодека : S_TEXT/UTF8
                  Идентификатор кодека/Информация : UTF-8 Plain Text
                  Заголовок : iTunes
                  Язык : Ukrainian
                  Default : Нет
                  Forced : Нет
                  Текст #4
                  Идентификатор : 8
                  Формат : UTF-8
                  Идентификатор кодека : S_TEXT/UTF8
                  Идентификатор кодека/Информация : UTF-8 Plain Text
                  Заголовок : SDH, iTunes
                  Язык : English
                  Default : Нет
                  Forced : Нет
                  Меню
                  00:00:00.000 : en:00:00:00.000
                  00:05:12.145 : en:00:05:12.145
                  00:09:36.075 : en:00:09:36.075
                  00:15:13.162 : en:00:15:13.162
                  00:20:58.424 : en:00:20:58.424
                  00:26:30.714 : en:00:26:30.714
                  00:33:15.118 : en:00:33:15.118
                  00:40:23.755 : en:00:40:23.755
                  00:47:23.382 : en:00:47:23.382
                  00:52:14.590 : en:00:52:14.590
                  00:57:49.174 : en:00:57:49.174
                  01:01:54.794 : en:01:01:54.794
                  01:07:22.080 : en:01:07:22.080
                  01:15:40.578 : en:01:15:40.578
                  01:21:03.901 : en:01:21:03.901
                  01:26:59.589 : en:01:26:59.589
                  01:32:39.137 : en:01:32:39.137
                  01:41:20.449 : en:01:41:20.449
                  01:46:47.651 : en:01:46:47.651
                  01:54:06.465 : en:01:54:06.465

                  Скриншоты

                  Скачать .torrent

                  Скачать торрент-файл бесплатно и на максимальной скорости!

                  Как скачивать? · Что такое торрент? · Рейтинг и ограничения

                  !ВНИМАНИЕ!
                  Сайт не распространяет и не хранит электронные версии произведений, а занимается лишь лишь предоставлением доступа к создаваемому пользователями каталогу ссылок на торрент-файлы, которые содержат только списки хеш-сумм, убедительная просьба с жалобами обращаться напрямую к пользователю. Файлы для обмена на трекере предоставлены пользователями сайта, и администрация не несёт ответственности за их содержание. Просьба не заливать файлы, защищенные авторскими правами, а также файлы нелегального содержания!


                  _________________
                  [Профиль] [ЛС]
                  Показать сообщения:    
                  Ответить на тему

                  Текущее время: Сегодня, в 18:03

                  Часовой пояс: GMT + 2



                  Вы не можете начинать темы
                  Вы не можете отвечать на сообщения
                  Вы не можете редактировать свои сообщения
                  Вы не можете удалять свои сообщения
                  Вы не можете голосовать в опросах
                  Вы не можете прикреплять файлы к сообщениям
                  Вы не можете скачивать файлы