BitTorrentTracker PerecTracker.org
BitTorrentTracker PerecTracker.org
    
Регистрация  ·  Вход
 
 · 
Забыли пароль?

  • Дракула / Dracula Untold (Гари Шор / Gary Shore) [2014, США, Япония, фэнтези, BDRemux 1080p] Dub (Пифагор) + VO (Есарев) + 2x AVO (Визгунов, Дольский) + Original Eng + Sub Rus, Eng

    Ответить на тему
     
    Автор Сообщение

    Flirldrerve

    Создавать темы 26-Янв-2016 03:04

           

    [Цитировать]

    Дракула / Dracula Untold«Легенда обретёт бессмертие»Страна: США, Япония
    Студия: Universal
    Жанр: фэнтези
    Год выпуска: 2014
    Продолжительность: 01:32:08
    Перевод: Профессиональный (дублированный) |Дубляж, Blu-ray CEE_[Пифагор]_2014г|
    Перевод 2: Одноголосый закадровый |Есарев, Дмитрий|
    Перевод 3: Авторский (одноголосый закадровый) |Визгунов, Сергей|
    Перевод 4: Авторский (одноголосый закадровый) |Дольский, Андрей Игоревич|
    Cубтитры: русские, английские
    Оригинальная аудиодорожка: английский
    Режиссер: Гари Шор / Gary Shore
    В ролях: Люк Эванс, Чарльз Дэнс, Сара Гадон, Доминик Купер, Арт Паркинсон, Дайармейд Мерта, Пол Кэй, Уильям Хьюстон, Ной Хантли, Ронан Вайберт
    Описание: Влад Дракула был величайшим правителем, доблестным воином и страстным мужчиной. Но судьба свела его с врагом, коварство которого не знало границ. И тогда Дракула заключил сделку – нечеловеческая сила в обмен на самую малость – бессмертную душу…
    Сэмпл: https://yadi.sk/i/iXcI9A_Dndf2q
    Тип релиза: BDRemux 1080p
    Контейнер: MKV
    Видео: MPEG-4 AVC, 29726 Кбит/с, 1920x1080, 23.976 кадр/с
    Аудио: Russian / DTS / 5.1 / 48 kHz / 768 kbps |Дубляж, Blu-ray CEE_[Пифагор]_2014г|
    Аудио 2: Russian / DTS-HD Master Audio / 5.1 / 48 kHz / 3556 kbps / 24-bit (DTS Core: 5.1 / 48 kHz / 1509 kbps / 24-bit) |Есарев, Дмитрий|
    Аудио 3: Russian / DTS-HD Master Audio / 5.1 / 48 kHz / 3589 kbps / 24-bit (DTS Core: 5.1 / 48 kHz / 1509 kbps / 24-bit) |Визгунов, Сергей|
    Аудио 4: Russian / DTS-HD Master Audio / 5.1 / 48 kHz / 3599 kbps / 24-bit (DTS Core: 5.1 / 48 kHz / 1509 kbps / 24-bit) |Дольский, Андрей Игоревич|
    Аудио 5: English / DTS-HD Master Audio / 5.1 / 48 kHz / 3539 kbps / 24-bit (DTS Core: 5.1 / 48 kHz / 1509 kbps / 24-bit) |original|
    Аудио 6: English / AC3 / 2.0 / 48 kHz / 192 kbps / 16-bit [Descriptive]
    Аудио 7: English / AC3 / 2.0 / 48 kHz / 192 kbps / 16-bit [Commentary by director Gary Shore and production designer Francois Audouy]
    Формат субтитров: softsub (SRT)

    MediaInfo

    Общее
    Уникальный идентификатор : 236101368693133257397002132572592543352 (0xB19F7836E62232F28CEB8692018A1678)
    Полное имя : K:\V.S.P\MOVIE\Dracula Untold_2014г_Luke George Evans\Dracula Untold_2014г_Luke George Evans.mkv
    Формат : Matroska
    Версия формата : Version 4 / Version 2
    Размер файла : 28,6 Гбайт
    Продолжительность : 1 ч. 32 м.
    Режим общего битрейта : Переменный
    Общий поток : 44,4 Мбит/сек
    Название фильма : Dracula Untold_2014г_Luke George Evans
    Дата кодирования : UTC 2016-01-24 06:06:56
    Программа кодирования : mkvmerge v6.9.1 ('Blue Panther') 64bit built on Apr 18 2014 18:23:38
    Библиотека кодирования : libebml v1.3.0 + libmatroska v1.4.1
    Attachment : Yes
    Видео
    Идентификатор : 1
    Формат : AVC
    Формат/Информация : Advanced Video Codec
    Профиль формата : High@L4.1
    Параметр CABAC формата : Да
    Параметр ReFrames формата : 4 кадра
    Идентификатор кодека : V_MPEG4/ISO/AVC
    Продолжительность : 1 ч. 32 м.
    Вид битрейта : Переменный
    Максимальный битрейт : 33,0 Мбит/сек
    Ширина : 1920 пикселей
    Высота : 1080 пикселей
    Соотношение сторон : 16:9
    Режим частоты кадров : Постоянный
    Частота кадров : 23,976 кадра/сек
    Цветовое пространство : YUV
    Субдискретизация насыщенности : 4:2:0
    Битовая глубина : 8 бит
    Тип развёртки : Прогрессивная
    Заголовок : Dracula Untold_2014г_Luke George Evans
    Язык : English
    Default : Да
    Forced : Нет
    Аудио #1
    Идентификатор : 2
    Формат : DTS
    Формат/Информация : Digital Theater Systems
    Режим : 16
    Параметр Endianness формата : Big
    Идентификатор кодека : A_DTS
    Продолжительность : 1 ч. 32 м.
    Вид битрейта : Постоянный
    Битрейт : 768 Кбит/сек
    Каналы : 6 каналов
    Расположение каналов : Front: L C R, Side: L R, LFE
    Частота : 48,0 КГц
    Битовая глубина : 24 бит
    Метод сжатия : С потерями
    Размер потока : 506 Мбайт (2%)
    Заголовок : |Дубляж, Blu-ray CEE_[Пифагор]_2014г|
    Язык : Russian
    Default : Да
    Forced : Нет
    Аудио #2
    Идентификатор : 3
    Формат : DTS
    Формат/Информация : Digital Theater Systems
    Профиль формата : MA / Core
    Режим : 16
    Параметр Endianness формата : Big
    Идентификатор кодека : A_DTS
    Продолжительность : 1 ч. 32 м.
    Вид битрейта : Переменный
    Битрейт : Неизвестно / 1509 Кбит/сек
    Каналы : 6 каналов
    Расположение каналов : Front: L C R, Side: L R, LFE
    Частота : 48,0 КГц
    Битовая глубина : 24 бит
    Метод сжатия : Без потерь / Lossy
    Заголовок : |Есарев, Дмитрий|
    Язык : Russian
    Default : Нет
    Forced : Нет
    Аудио #3
    Идентификатор : 4
    Формат : DTS
    Формат/Информация : Digital Theater Systems
    Профиль формата : MA / Core
    Режим : 16
    Параметр Endianness формата : Big
    Идентификатор кодека : A_DTS
    Продолжительность : 1 ч. 32 м.
    Вид битрейта : Переменный
    Битрейт : Неизвестно / 1509 Кбит/сек
    Каналы : 6 каналов
    Расположение каналов : Front: L C R, Side: L R, LFE
    Частота : 48,0 КГц
    Битовая глубина : 24 бит
    Метод сжатия : Без потерь / Lossy
    Заголовок : |Визгунов, Сергей|
    Язык : Russian
    Default : Нет
    Forced : Нет
    Аудио #4
    Идентификатор : 5
    Формат : DTS
    Формат/Информация : Digital Theater Systems
    Профиль формата : MA / Core
    Режим : 16
    Параметр Endianness формата : Big
    Идентификатор кодека : A_DTS
    Продолжительность : 1 ч. 32 м.
    Вид битрейта : Переменный
    Битрейт : Неизвестно / 1509 Кбит/сек
    Каналы : 6 каналов
    Расположение каналов : Front: L C R, Side: L R, LFE
    Частота : 48,0 КГц
    Битовая глубина : 24 бит
    Метод сжатия : Без потерь / Lossy
    Заголовок : |Дольский, Андрей Игоревич|
    Язык : Russian
    Default : Нет
    Forced : Нет
    Аудио #5
    Идентификатор : 6
    Формат : DTS
    Формат/Информация : Digital Theater Systems
    Профиль формата : MA / Core
    Режим : 16
    Параметр Endianness формата : Big
    Идентификатор кодека : A_DTS
    Продолжительность : 1 ч. 32 м.
    Вид битрейта : Переменный
    Битрейт : Неизвестно / 1509 Кбит/сек
    Каналы : 6 каналов
    Расположение каналов : Front: L C R, Side: L R, LFE
    Частота : 48,0 КГц
    Битовая глубина : 24 бит
    Метод сжатия : Без потерь / Lossy
    Заголовок : |original|
    Язык : English
    Default : Нет
    Forced : Нет
    Аудио #6
    Идентификатор : 7
    Формат : AC-3
    Формат/Информация : Audio Coding 3
    Профиль формата : Dolby Digital
    Расширение режима : CM (complete main)
    Параметр Endianness формата : Big
    Идентификатор кодека : A_AC3
    Продолжительность : 1 ч. 32 м.
    Вид битрейта : Постоянный
    Битрейт : 192 Кбит/сек
    Каналы : 2 канала
    Расположение каналов : Front: L R
    Частота : 48,0 КГц
    Битовая глубина : 16 бит
    Метод сжатия : С потерями
    Размер потока : 127 Мбайт (0%)
    Заголовок : |Descriptive|
    Язык : English
    Default : Нет
    Forced : Нет
    Аудио #7
    Идентификатор : 8
    Формат : AC-3
    Формат/Информация : Audio Coding 3
    Профиль формата : Dolby Digital
    Расширение режима : CM (complete main)
    Параметр Endianness формата : Big
    Идентификатор кодека : A_AC3
    Продолжительность : 1 ч. 32 м.
    Вид битрейта : Постоянный
    Битрейт : 192 Кбит/сек
    Каналы : 2 канала
    Расположение каналов : Front: L R
    Частота : 48,0 КГц
    Битовая глубина : 16 бит
    Метод сжатия : С потерями
    Размер потока : 127 Мбайт (0%)
    Заголовок : |Commentary by director Gary Shore and production designer Francois Audouy|
    Язык : English
    Default : Нет
    Forced : Нет
    Текст #1
    Идентификатор : 9
    Формат : UTF-8
    Идентификатор кодека : S_TEXT/UTF8
    Идентификатор кодека/Информация : UTF-8 Plain Text
    Заголовок : forced
    Язык : Russian
    Default : Да
    Forced : Нет
    Текст #2
    Идентификатор : 10
    Формат : UTF-8
    Идентификатор кодека : S_TEXT/UTF8
    Идентификатор кодека/Информация : UTF-8 Plain Text
    Заголовок : full_Blu-ray CEE
    Язык : Russian
    Default : Нет
    Forced : Нет
    Текст #3
    Идентификатор : 11
    Формат : UTF-8
    Идентификатор кодека : S_TEXT/UTF8
    Идентификатор кодека/Информация : UTF-8 Plain Text
    Заголовок : forced
    Язык : English
    Default : Нет
    Forced : Нет
    Текст #4
    Идентификатор : 12
    Формат : UTF-8
    Идентификатор кодека : S_TEXT/UTF8
    Идентификатор кодека/Информация : UTF-8 Plain Text
    Заголовок : full
    Язык : English
    Default : Нет
    Forced : Нет
    Текст #5
    Идентификатор : 13
    Формат : UTF-8
    Идентификатор кодека : S_TEXT/UTF8
    Идентификатор кодека/Информация : UTF-8 Plain Text
    Заголовок : SDH_full
    Язык : English
    Default : Нет
    Forced : Нет
    Меню
    00:00:00.000 : en:00:00:00.000
    00:04:07.289 : en:00:04:07.289
    00:07:20.565 : en:00:07:20.565
    00:11:32.817 : en:00:11:32.817
    00:16:30.698 : en:00:16:30.698
    00:22:53.664 : en:00:22:53.664
    00:30:23.447 : en:00:30:23.447
    00:34:16.763 : en:00:34:16.763
    00:38:57.043 : en:00:38:57.043
    00:43:00.369 : en:00:43:00.369
    00:47:03.738 : en:00:47:03.738
    00:53:16.735 : en:00:53:16.735
    00:57:39.831 : en:00:57:39.831
    01:00:47.310 : en:01:00:47.310
    01:04:30.033 : en:01:04:30.033
    01:09:12.190 : en:01:09:12.190
    01:12:47.613 : en:01:12:47.613
    01:17:11.877 : en:01:17:11.877
    01:21:52.658 : en:01:21:52.658
    01:25:02.556 : en:01:25:02.556

    Скриншоты



    Цитата:
    Цитата:

    За работу со звуком спасибо огромное Skazhutin
    За предоставление чистых голосов Сергея Визгунова & Андрея Дольского спасибо огромное нокомент.
    Перевод Дмитрия Есарева выполнен в рамках сервиса от HDCLUB "Озвучивание". Спонсоры: нокомент, mvch73, Nikita_1976, November, dikii.
    Цитата:
    Цитата:


    Съемки, начавшиеся 5 августа 2013 года, проходили в Северной Ирландии. 5 и 6 августа они проходили в парке Ро Вэлли Кантри.
    Эбби Корниш отказалась от предложения исполнить главную женскую роль.
    На роль, которая досталась Люку Эвансу, рассматривался Сэм Уортингтон.
    Изначально Саманта Баркс была взята на роль Бабы-яги, также роль в фильме получил Чарли Кокс. Но в итоге все сцены с участием их персонажей были удалены.
    Скачать .torrent

    Скачать торрент-файл бесплатно и на максимальной скорости!

    Как скачивать? · Что такое торрент? · Рейтинг и ограничения

    !ВНИМАНИЕ!
    Сайт не распространяет и не хранит электронные версии произведений, а занимается лишь лишь предоставлением доступа к создаваемому пользователями каталогу ссылок на торрент-файлы, которые содержат только списки хеш-сумм, убедительная просьба с жалобами обращаться напрямую к пользователю. Файлы для обмена на трекере предоставлены пользователями сайта, и администрация не несёт ответственности за их содержание. Просьба не заливать файлы, защищенные авторскими правами, а также файлы нелегального содержания!


    _________________
    [Профиль] [ЛС]
    Показать сообщения:    
    Ответить на тему

    Текущее время: Сегодня, в 06:10

    Часовой пояс: GMT + 2



    Вы не можете начинать темы
    Вы не можете отвечать на сообщения
    Вы не можете редактировать свои сообщения
    Вы не можете удалять свои сообщения
    Вы не можете голосовать в опросах
    Вы не можете прикреплять файлы к сообщениям
    Вы не можете скачивать файлы