BitTorrentTracker PerecTracker.org
BitTorrentTracker PerecTracker.org
    
Регистрация  ·  Вход
 
 · 
Забыли пароль?

  • Маленький принц / The Little Prince / Le Petit Prince (Марк Осборн / Mark Osborne) [2015, Франция, фэнтези, приключения, BDRip-AVC] DVO + Sub Eng, Fre + Original Fre

    Ответить на тему
     
    Автор Сообщение

    rechyn

    Создавать темы 26-Янв-2016 03:04

           

    [Цитировать]

    Маленький принц
    The Little Prince | Le Petit Prince
    -Страна: Франция | Onyx Films, Orange Studio, On Entertainment
    Жанр: фэнтези, приключения
    Продолжительность: 01:46:34
    Год выпуска: 2015
    Перевод: Любительский (двухголосый закадровый) (Den904 & DeadSno)
    Русские субтитры: нет-Режиссёр: Марк Осборн / Mark Osborne
    Роли озвучивали: Рэйчел МакАдамс, Пол Радд, Джеймс Франко, Марион Котийяр, Бенисио Дель Торо, Маккензи Фой, Джефф Бриджес, Венсан Кассель, Пол Джаматти, Рики Джервэйс-ОписаниеМир невозможен без фантазии и приключений. По крайней мере в это верит добродушный старик авиатор, по соседству с которым недавно поселилась одна очень педантичная мама со своей прилежной дочкой. Жизнь девочки подчинена строгому учебному плану, в котором время на друзей предусмотрено только следующим летом. Однако этот тщательно выстроенный план трещит по швам, когда в жизнь девочки врывается странный сосед с его невероятными рассказами о Маленьком Принце и далеких звездах. Осталось только починить самолет, и в путь! Так начинается большое путешествие девочки — полное опасностей, волшебства, юмора и настоящей дружбы.-«Маленький принц» (фр. Le Petit Prince) — французский мультфильм, основанный на известной сказке «Маленький принц», которую написал Антуан де Сент-Экзюпери. Режиссёр - Марк Осборн, известный по знаменитому мультфильму «Кунг-фу Панда».
    Сэмпл
    kinopoisk
    IMDb: 7.80 (5847)
    Релиз:

    Качество: BDRip-AVC The.Little.Prince.2015.1080p.BluRay.REMUX.AVC.TrueHD.7.1 hd-space
    Формат: MKV
    Видео: AVC 1819 Kbps 1136 x 484 (2.347) 23.976 fps
    Аудио: AC-3 192 Kbps channels, 48.0 KHz
    Аудио 2: AC-3 448 Kbps 6 channels, 48.0 KHz
    Субтитры: Eng [Full, Forced], Fre, SRT
    MI | Log

    Log

    x264 [info]: frame I:1382 Avg QP:12.16 size: 78518
    x264 [info]: frame P:37169 Avg QP:13.72 size: 21091
    x264 [info]: frame B:114761 Avg QP:16.96 size: 5226
    x264 [info]: consecutive B-frames: 2.5% 3.7% 7.0% 52.4% 9.3% 12.1% 2.6% 6.4% 1.0% 0.5% 1.2% 0.8% 0.7%
    x264 [info]: mb I I16..4: 10.3% 63.8% 25.9%
    x264 [info]: mb P I16..4: 1.1% 6.9% 2.0% P16..4: 28.4% 32.2% 13.5% 3.4% 0.4% skip:12.0%
    x264 [info]: mb B I16..4: 0.2% 0.6% 0.3% B16..8: 31.2% 17.6% 2.7% direct: 3.4% skip:44.0% L0:45.4% L1:45.0% BI: 9.6%
    x264 [info]: 8x8 transform intra:65.7% inter:46.0%
    x264 [info]: direct mvs spatial:99.9% temporal:0.1%
    x264 [info]: coded y,uvDC,uvAC intra: 79.8% 81.7% 69.6% inter: 12.8% 12.1% 5.7%
    x264 [info]: i16 v,h,dc,p: 32% 22% 6% 39%
    x264 [info]: i8 v,h,dc,ddl,ddr,vr,hd,vl,hu: 12% 12% 13% 9% 10% 10% 11% 11% 13%
    x264 [info]: i4 v,h,dc,ddl,ddr,vr,hd,vl,hu: 30% 12% 7% 7% 10% 9% 9% 7% 9%
    x264 [info]: i8c dc,h,v,p: 38% 33% 17% 12%
    x264 [info]: Weighted P-Frames: Y:5.5% UV:3.7%
    x264 [info]: ref P L0: 51.4% 6.1% 16.6% 6.7% 4.8% 4.0% 3.3% 2.0% 1.7% 1.6% 1.5% 0.2% 0.0%
    x264 [info]: ref B L0: 70.3% 13.1% 6.4% 3.0% 2.1% 1.7% 1.5% 1.0% 0.6% 0.3%
    x264 [info]: ref B L1: 91.2% 8.8%
    x264 [info]: kb/s:1866.86
    x264 [total]: encoded 153312 frames, 11.86 fps, 1866.86 kb/s, duration 3:35:29.06
    Format : Matroska
    Format version : Version 4 / Version 2
    File size : 1.87 GiB
    Duration : 1h 46mn
    Overall bit rate : 2 509 Kbps
    Encoded date : UTC 2015-12-01 06:01:09
    Writing application : mkvmerge v6.7.0 ('Back to the Ground') 32bit built on Jan 8 2014 15:03:17
    Writing library : libebml v1.3.0 + libmatroska v1.4.1
    Video
    ID : 1
    Format : AVC
    Format/Info : Advanced Video Codec
    Format profile : High@L4.1
    Format settings, CABAC : Yes
    Format settings, ReFrames : 11 frames
    Codec ID : V_MPEG4/ISO/AVC
    Duration : 1h 46mn
    Bit rate : 1 819 Kbps
    Width : 1 136 pixels
    Height : 484 pixels
    Display aspect ratio : 2.35:1
    Frame rate mode : Constant
    Frame rate : 23.976 fps
    Color space : YUV
    Chroma subsampling : 4:2:0
    Bit depth : 8 bits
    Scan type : Progressive
    Bits/(Pixel*Frame) : 0.138
    Stream size : 1.35 GiB (73%)
    Title : The Little Prince (2015) [perectracker.org]
    Writing library : x264 core 148 r2579kMod 73ae2d1
    Encoding settings : cabac=1 / ref=11 / deblock=1:-2:-2 / analyse=0x3:0x133 / me=umh / subme=11 / psy=1 / fade_compensate=0.00 / psy_rd=1.00:0.05 / mixed_ref=1 / me_range=32 / chroma_me=1 / trellis=2 / 8x8dct=1 / cqm=0 / deadzone=21,11 / fast_pskip=0 / chroma_qp_offset=-3 / threads=12 / lookahead_threads=3 / sliced_threads=0 / nr=0 / decimate=1 / interlaced=0 / bluray_compat=0 / constrained_intra=0 / fgo=0 / bframes=12 / b_pyramid=2 / b_adapt=2 / b_bias=0 / direct=3 / weightb=1 / open_gop=0 / weightp=2 / keyint=250 / keyint_min=23 / scenecut=40 / intra_refresh=0 / rc_lookahead=60 / rc=crf / mbtree=0 / crf=17.0000 / qcomp=0.60 / qpmin=0 / qpmax=69 / qpstep=4 / vbv_maxrate=50000 / vbv_bufsize=62500 / crf_max=0.0 / nal_hrd=none / filler=0 / ip_ratio=1.40 / pb_ratio=1.30 / aq=3:0.90
    Language : French
    Default : Yes
    Forced : No
    Audio #1
    ID : 2
    Format : AC-3
    Format/Info : Audio Coding 3
    Mode extension : CM (complete main)
    Format settings, Endianness : Big
    Codec ID : A_AC3
    Duration : 1h 46mn
    Bit rate mode : Constant
    Bit rate : 192 Kbps
    Channel(s) : 2 channels
    Channel positions : Front: L R
    Sampling rate : 48.0 KHz
    Compression mode : Lossy
    Stream size : 146 MiB (8%)
    Title : DVO [Den904 & DeadSno]
    Language : Russian
    Default : Yes
    Forced : No
    Audio #2
    ID : 3
    Format : AC-3
    Format/Info : Audio Coding 3
    Mode extension : CM (complete main)
    Format settings, Endianness : Big
    Codec ID : A_AC3
    Duration : 1h 46mn
    Bit rate mode : Constant
    Bit rate : 448 Kbps
    Channel(s) : 6 channels
    Channel positions : Front: L C R, Side: L R, LFE
    Sampling rate : 48.0 KHz
    Compression mode : Lossy
    Stream size : 341 MiB (18%)
    Title : Original
    Language : French
    Default : No
    Forced : No
    Text #1
    ID : 4
    Format : UTF-8
    Codec ID : S_TEXT/UTF8
    Codec ID/Info : UTF-8 Plain Text
    Title : Forced
    Language : English
    Default : No
    Forced : No
    Text #2
    ID : 5
    Format : UTF-8
    Codec ID : S_TEXT/UTF8
    Codec ID/Info : UTF-8 Plain Text
    Title : Full
    Language : English
    Default : No
    Forced : No
    Text #3
    ID : 6
    Format : UTF-8
    Codec ID : S_TEXT/UTF8
    Codec ID/Info : UTF-8 Plain Text
    Title : Full
    Language : French
    Default : No
    Forced : No
    Menu
    00:00:00.000 : en:Chapter 01
    00:06:11.537 : en:Chapter 02
    00:16:06.840 : en:Chapter 03
    00:22:35.854 : en:Chapter 04
    00:32:19.896 : en:Chapter 05
    00:38:05.283 : en:Chapter 06
    00:43:55.299 : en:Chapter 07
    00:49:36.682 : en:Chapter 08
    00:57:30.864 : en:Chapter 09
    01:08:33.192 : en:Chapter 10
    01:14:05.983 : en:Chapter 11
    01:20:31.743 : en:Chapter 12
    01:27:21.569 : en:Chapter 13
    01:39:06.315 : en:Chapter 14[/pre]

    Скриншоты



    Скачать .torrent

    Скачать торрент-файл бесплатно и на максимальной скорости!

    Как скачивать? · Что такое торрент? · Рейтинг и ограничения

    !ВНИМАНИЕ!
    Сайт не распространяет и не хранит электронные версии произведений, а занимается лишь лишь предоставлением доступа к создаваемому пользователями каталогу ссылок на торрент-файлы, которые содержат только списки хеш-сумм, убедительная просьба с жалобами обращаться напрямую к пользователю. Файлы для обмена на трекере предоставлены пользователями сайта, и администрация не несёт ответственности за их содержание. Просьба не заливать файлы, защищенные авторскими правами, а также файлы нелегального содержания!


    _________________
    [Профиль] [ЛС]
    Показать сообщения:    
    Ответить на тему

    Текущее время: Сегодня, в 10:06

    Часовой пояс: GMT + 2



    Вы не можете начинать темы
    Вы не можете отвечать на сообщения
    Вы не можете редактировать свои сообщения
    Вы не можете удалять свои сообщения
    Вы не можете голосовать в опросах
    Вы не можете прикреплять файлы к сообщениям
    Вы не можете скачивать файлы