BitTorrentTracker PerecTracker.org
BitTorrentTracker PerecTracker.org
    
Регистрация  ·  Вход
 
 · 
Забыли пароль?

  • Война / Krigen (Тобиас Линдхольм / Tobias Lindholm) [2015, Дания, драма, военный, DVDRip] Sub Rus (adelstein s) + Original Dan

    Ответить на тему
     
    Автор Сообщение

    rechyn

    Создавать темы 26-Янв-2016 03:04

           

    [Цитировать]

    Война / Krigen
    Страна: Дания
    Жанр: драма, военный
    Год выпуска: 2015
    Продолжительность: 01:50:11
    Перевод: Субтитры
    Автор перевода: adelstein_s
    Cубтитры: русские, датские
    Оригинальная аудиодорожка: датская
    Режиссер: Тобиас Линдхольм / Tobias Lindholm
    В ролях: Йохан Филип Асбек, Тува Новотны, Сёрен Маллинг, Дар Салим, Шарлотте Мунк
    Описание: Клаус Микаэль Педерсен служит в Афганистане, командуя ротой датских солдат. Патрулируя одно афганское селение отряд во главе с Педерсеном попадает в засаду. Рядовой Лассе тяжело ранен. Пытаясь спасти его жизнь, командир предпринимает отчаянный шаг, который приводит его в итоге на скамью подсудимых
    IMDb
    Номинации:
    кинопремия "Оскар" (2016)
    Венецианский кинофестиваль (2015)
    Сэмпл
    Качество видео: DVDRip
    Формат видео: AVI
    Видео: 704x384 (16:9), 25 fps, XviD, ~1504 Kbps avg, 0,22 bit/pixel
    Аудио: 48 kHz, AC3 Dolby Digital, 6 ch, ~384 kbps
    Формат субтитров: softsub (SRT)

    MediaInfo

    General
    Format : AVI
    Format/Info : Audio Video Interleave
    File size : 1.46 GiB
    Duration : 1h 50mn
    Overall bit rate : 1 898 Kbps
    Writing application : VirtualDubMod 1.5.10.3 | www.virtualdub-fr.org || (build 2550/release)
    Writing library : VirtualDubMod build 2550/release
    Video #0
    ID : 0
    Format : MPEG-4 Visual
    Format profile : AdvancedSimple@L5
    Format settings, BVOP : Yes
    Format settings, QPel : No
    Format settings, GMC : No warppoints
    Format settings, Matrix : Default (MPEG)
    Codec ID : XVID
    Codec ID/Hint : XviD
    Duration : 1h 50mn
    Bit rate : 1 504 Kbps
    Width : 704 pixels
    Height : 384 pixels
    Display aspect ratio : 16:9
    Frame rate : 25.000 fps
    Resolution : 24 bits
    Colorimetry : 4:2:0
    Scan type : Progressive
    Bits/(Pixel*Frame) : 0.223
    Stream size : 1.16 GiB (79%)
    Writing library : XviD 1.2.1 (UTC 2008-12-04)
    Audio #1
    ID : 1
    Format : AC-3
    Format/Info : Audio Coding 3
    Codec ID : 2000
    Duration : 1h 50mn
    Bit rate mode : Constant
    Bit rate : 384 Kbps
    Channel(s) : 6 channels
    Channel positions : Front: L C R, Surround: L R, LFE
    Sampling rate : 48.0 KHz
    Stream size : 303 MiB (20%)
    Alignment : Split accross interleaves
    Interleave, duration : 40 ms (1.00 video frame)
    Interleave, preload duration : 500 ms

    Пример субтитров

    71
    00:08:26,460 --> 00:08:28,337
    Где он?
    72
    00:08:29,980 --> 00:08:32,778
    - Где Юлиус?
    - Он играет на улице.
    73
    00:08:32,940 --> 00:08:35,738
    Нам надо сначала поговорить с Биргитте.
    74
    00:08:35,900 --> 00:08:38,744
    Привет, Мария.
    Хорошо, что заглянула.
    75
    00:08:38,900 --> 00:08:44,145
    Юлиус подрался сегодня с одним мальчиком.
    76
    00:08:44,300 --> 00:08:47,463
    - Это было серьёзно?
    - Да.
    77
    00:08:47,620 --> 00:08:50,862
    Он сильно укусил мальчика в плечо.
    78
    00:08:51,020 --> 00:08:53,898
    Ты сама предложила, чтобы мы -
    79
    00:08:54,060 --> 00:08:57,700
    ты, я и его классный руководитель
    сели и обсудили всё.
    80
    00:08:57,860 --> 00:09:02,024
    Конечно, давайте найдём время.
    В пятницу я заканчиваю работать в три.
    81
    00:09:02,180 --> 00:09:06,139
    - Я могу появиться здесь полчетвёртого.
    - Я поищу свой календарь.
    82
    00:09:06,300 --> 00:09:09,144
    Одну минутку, я буду там.
    83
    00:09:12,460 --> 00:09:16,976
    Юлиус укусил...
    Юлиус укусил мальчика.
    84
    00:09:17,140 --> 00:09:20,462
    Да, он так и сделал, дорогой.
    Но этого делать нельзя, правда?
    85
    00:09:21,340 --> 00:09:23,661
    Когда мы поедем домой?
    86
    00:09:27,620 --> 00:09:31,579
    Я понимаю, что будет совсем нелегко
    разобраться, в чём тут дело,
    87
    00:09:31,740 --> 00:09:35,335
    но мы должны всё выяснить.
    У меня много дел в пятницу...
    88
    00:09:38,220 --> 00:09:40,415
    Юлиус?
    89
    00:09:41,900 --> 00:09:46,462
    Привет! Пора идти домой.
    Идём.
    90
    00:09:47,900 --> 00:09:51,336
    Нам пора домой, Юлиус.
    Фигне ждёт нас.
    91
    00:09:54,740 --> 00:09:58,665
    Юлиус, идём.
    Юлиус, дорогой?
    92
    00:10:01,460 --> 00:10:03,303
    Юлиус?
    93
    00:10:04,700 --> 00:10:07,214
    Пошли, папа будет звонить сегодня.
    94
    00:10:14,340 --> 00:10:15,898
    Пошли.

    Скриншоты








    Скачать .torrent

    Скачать торрент-файл бесплатно и на максимальной скорости!

    Как скачивать? · Что такое торрент? · Рейтинг и ограничения

    !ВНИМАНИЕ!
    Сайт не распространяет и не хранит электронные версии произведений, а занимается лишь лишь предоставлением доступа к создаваемому пользователями каталогу ссылок на торрент-файлы, которые содержат только списки хеш-сумм, убедительная просьба с жалобами обращаться напрямую к пользователю. Файлы для обмена на трекере предоставлены пользователями сайта, и администрация не несёт ответственности за их содержание. Просьба не заливать файлы, защищенные авторскими правами, а также файлы нелегального содержания!


    _________________
    [Профиль] [ЛС]
    Показать сообщения:    
    Ответить на тему

    Текущее время: Сегодня, в 19:55

    Часовой пояс: GMT + 2



    Вы не можете начинать темы
    Вы не можете отвечать на сообщения
    Вы не можете редактировать свои сообщения
    Вы не можете удалять свои сообщения
    Вы не можете голосовать в опросах
    Вы не можете прикреплять файлы к сообщениям
    Вы не можете скачивать файлы